Ивановский Торрент трекер
Яндекс.Погода
 

[Цитировать]
HUNTER

Френни / The Benefactor
Страна: США
Жанр: драма
Год выпуска: 2015
Продолжительность: 01:32:45
Перевод: Любительский (многоголосый закадровый) Паровоз Продакшн
Cубтитры: английские [Full, SDH]
Оригинальная аудиодорожка: английский
-
Режиссер: Эндрю Ренци / Andrew Renzi
В ролях: Лаура Харт, Тео Джеймс, Дакота Фэннинг, Ричард Гир, Кларк Питерс, Мария Брейман, Марко Кака, Эрика Линн Арден, Брайан Энтони Уилсон, Лиза Робертс
-
Описание: Главный герой - филантроп, который, чтобы побороть собственное отчаяние, ставит своей целью наладить отношения молодой пары Оливии и Луки, в которые он отчаянно влезает.

Тип релиза: BDRemux 1080p
Контейнер: MKV
Видео: MPEG-4 AVC / NTSC 16:9 / 1920x1080 (2,35:1) / 26151 kbps / 23,976 fps / 0.526 bit/pixel / High@L4.1
Аудио 1: Russian / AC3 / 2.0 Ch / 48 kHz / 192 kbps / 16 bit / MVO
Аудио 2: English / DTS-HD Master Audio / 5.1 Ch / 48 kHz / 1818 kbps / 16-bit (DTS Core: 5.1 Ch / 48 kHz / 1509 kbps / 16-bit) / Original
Формат субтитров: softsub (SRT)
Навигация по главам: есть

MediaInfo

Общее
Уникальный идентификатор : 226606747830959351022635491295018838550 (0xAA7ADF4391E66E6F850249AEF06B6A16)
Полное имя : D:\The Benefactor.2015.BDRemux.1080p.mkv
Формат : Matroska
Версия формата : Version 4 / Version 2
Размер файла : 18,2 Гбайт
Продолжительность : 1 ч. 32 м.
Режим общего битрейта : Переменный
Общий поток : 28,2 Мбит/сек
Дата кодирования : UTC 2016-03-09 14:40:05
Программа кодирования : mkvmerge v8.9.0 ('Father Daughter') 64bit
Библиотека кодирования : libebml v1.3.3 + libmatroska v1.4.4
Видео
Идентификатор : 1
Формат : AVC
Формат/Информация : Advanced Video Codec
Профиль формата : High@L4.1
Параметр CABAC формата : Да
Параметр ReFrames формата : 4 кадра
Идентификатор кодека : V_MPEG4/ISO/AVC
Продолжительность : 1 ч. 32 м.
Вид битрейта : Переменный
Битрейт : 26,2 Мбит/сек
Максимальный битрейт : 35,0 Мбит/сек
Ширина : 1920 пикселей
Высота : 1080 пикселей
Соотношение сторон : 16:9
Режим частоты кадров : Постоянный
Частота кадров : 23,976 (24000/1001) кадра/сек
Стандарт вещания : NTSC
Цветовое пространство : YUV
Субдискретизация насыщенности : 4:2:0
Битовая глубина : 8 бит
Тип развёртки : Прогрессивная
Бит/(Пиксели*Кадры) : 0.526
Размер потока : 16,9 Гбайт (93%)
Язык : English
Default : Да
Forced : Нет
Цветовой диапазон : Limited
Основные цвета : BT.709
Характеристики трансфера : BT.709
Коэффициенты матрицы : BT.709
Аудио #1
Идентификатор : 2
Формат : AC-3
Формат/Информация : Audio Coding 3
Расширение режима : CM (complete main)
Параметр Endianness формата : Big
Идентификатор кодека : A_AC3
Продолжительность : 1 ч. 32 м.
Вид битрейта : Постоянный
Битрейт : 192 Кбит/сек
Каналы : 2 канала
Расположение каналов : Front: L R
Частота : 48,0 КГц
Частота кадров : 31,250 кадров/сек (1536 spf)
Метод сжатия : С потерями
Размер потока : 127 Мбайт (1%)
Заголовок : MVO / Паровоз Продакшн
Язык : Russian
Default : Да
Forced : Нет
Аудио #2
Идентификатор : 3
Формат : DTS
Формат/Информация : Digital Theater Systems
Профиль формата : MA / Core
Режим : 16
Параметр Endianness формата : Big
Идентификатор кодека : A_DTS
Продолжительность : 1 ч. 32 м.
Вид битрейта : Переменный / Постоянный
Битрейт : 1818 Кбит/сек / 1509 Кбит/сек
Каналы : 6 каналов
Расположение каналов : Front: L C R, Side: L R, LFE
Частота : 48,0 КГц
Частота кадров : 93,750 кадра/сек (512 spf)
Битовая глубина : 16 бит
Метод сжатия : Без потерь / Lossy
Размер потока : 1,18 Гбайт (6%)
Заголовок : Original
Язык : English
Default : Нет
Forced : Нет
Текст #1
Идентификатор : 4
Формат : UTF-8
Идентификатор кодека : S_TEXT/UTF8
Идентификатор кодека/Информация : UTF-8 Plain Text
Продолжительность : 1 ч. 21 м.
Битрейт : 56 бит/сек
Count of elements : 1104
Размер потока : 33,7 Кбайт (0%)
Заголовок : Original
Язык : English
Default : Нет
Forced : Нет
Текст #2
Идентификатор : 5
Формат : UTF-8
Идентификатор кодека : S_TEXT/UTF8
Идентификатор кодека/Информация : UTF-8 Plain Text
Продолжительность : 1 ч. 23 м.
Битрейт : 58 бит/сек
Count of elements : 1196
Размер потока : 35,9 Кбайт (0%)
Заголовок : Original / SDH
Язык : English
Default : Нет
Forced : Нет
Меню
00:00:00.000 : en:00:00:00.000
00:05:31.873 : en:00:05:31.873
00:10:50.400 : en:00:10:50.400
00:15:53.703 : en:00:15:53.703
00:21:56.398 : en:00:21:56.398
00:28:05.559 : en:00:28:05.559
00:35:13.069 : en:00:35:13.069
00:41:57.598 : en:00:41:57.598
00:46:15.856 : en:00:46:15.856
00:51:46.395 : en:00:51:46.395
00:57:00.292 : en:00:57:00.292
01:02:34.668 : en:01:02:34.668
01:08:34.360 : en:01:08:34.360
01:14:16.869 : en:01:14:16.869
01:20:08.554 : en:01:20:08.554
01:25:00.512 : en:01:25:00.512

Скриншоты

Показать сообщения:    

Текущее время: 17-Окт 19:45

Часовой пояс: UTC - 1


Вы не можете начинать темы
Вы не можете отвечать на сообщения
Вы не можете редактировать свои сообщения
Вы не можете удалять свои сообщения
Вы не можете голосовать в опросах
Вы не можете прикреплять файлы к сообщениям
Вы не можете скачивать файлы

!ВНИМАНИЕ!
Сайт не предоставляет электронные версии произведений, а занимается лишь коллекционированием и каталогизацией ссылок, присылаемых и публикуемых на форуме нашими читателями. Если вы являетесь правообладателем какого-либо представленного материала и не желаете, чтобы ссылка на него находилась в нашем каталоге, свяжитесь с нами, и мы незамедлительно удалим ее. Файлы для обмена на трекере предоставлены пользователями сайта, и администрация не несет ответственности за их содержание. Просьба не заливать файлы, защищенные авторскими правами, а также файлы нелегального содержания!