Ивановский Торрент трекер
Яндекс.Погода
 

[Quote]
HUNTER

Франк и Ева / Frank en Eva / Living Apart Together
Страна: Нидерланды
Жанр: драма
Год выпуска: 1973
Продолжительность: 01:33:26
Перевод: Одноголосый закадровый ССК+
Cубтитры: нет
Оригинальная аудиодорожка: нидерландский
Режиссер: Пим де ла Парра / Pim de la Parra
В ролях: Виллеке ван Аммельрой, Гуго Метсерс, Сильвия Кристель.
Описание: Фильм о недопонимании. Весельчак Фрэнк считает что жизнь это игра, его жена Ева что бой.Постоянно конфликтуя и ругаясь друг с другом из за непреодолимых разногласий, они всё равно любят друг друга и остаются вместе..
Доп. информация: Русская звуковая дорожка взята с этой раздачи http://rutracker.org/forum/viewtopic.php?t=4913152 автору большое спасибо.
При пересборе двд были использованы программы:
BeSweet в связке с BeLight – распаковка звука в формат WAV
Sony Vegas – кодирование в AC3
PgcDemux - разделение компонентов диска на файлы
Muxman - мультиплексирование и авторинг DVD
VobBlanker - реавторинг DVD

Скрин завершения проекта

Бонусы: Фильмографии, короткометражка.
Сэмпл: http://sendfile.su/1102947
Тип релиза: DVD5 (Custom)
Контейнер: DVD-Video
Видео: PAL 16:9 (720x576) VBR
Аудио: Russian (Dolby AC3, 192 Кбит/сек, 2 ch)
Аудио 2: Norsk (Dolby AC3, 224 Кбит/сек, 2 ch)

DVDInfo

Size: 3.76 Gb ( 3 942 202 KBytes ) - DVD-5
Enabled regions: 1, 2, 3, 4, 5, 6
VTS_01 :
Play Length: 00:00:08
Video: PAL 4:3 (720x576) VBR
VTS_02 :
Play Length: 00:00:09
Video: PAL 4:3 (720x576) VBR
Audio:
English (Dolby AC3, 2 ch)
VTS_03 :
Play Length: 00:00:13
Video: PAL 4:3 (720x576) VBR
Audio:
English (Dolby AC3, 2 ch)
VTS_04 :
Play Length: 01:33:26
Video: PAL 16:9 (720x576) VBR
Audio:
Russian (Dolby AC3, 2 ch)
Norsk (Dolby AC3, 2 ch)
VTS_05 :
Play Length: 00:03:19
Video: PAL 4:3 (720x576) VBR
Audio:
English (Dolby AC3, 2 ch)
Menu Video:
PAL 4:3 (720x576) VBR
Menu English Language Unit :
Root Menu

MediaInfo

Общее
Полное имя : M:\Frank en Eva_1973\VIDEO_TS\VTS_04_1.VOB
Формат : MPEG-PS
Размер файла : 1024 Мбайт
Продолжительность : 25 м.
Режим общего битрейта : Переменный
Общий поток : 5521 Кбит/сек
Видео
Идентификатор : 224 (0xE0)
Формат : MPEG Video
Версия формата : Version 2
Профиль формата : [email protected]
Параметр BVOP формата : Да
Параметр матрицы формата : Выборочная
Параметр GOP формата : M=3, N=15
Продолжительность : 25 м.
Вид битрейта : Переменный
Битрейт : 5000 Кбит/сек
Ширина : 720 пикселей
Высота : 576 пикселей
Соотношение сторон : 16:9
Частота кадров : 25,000 кадров/сек
Стандарт вещания : PAL
Цветовое пространство : YUV
Субдискретизация насыщенности : 4:2:0
Битовая глубина : 8 бит
Тип развёртки : Чересстрочная
Порядок развёртки : Верхнее поле первое
Метод сжатия : С потерями
Бит/(Пиксели*Кадры) : 0.482
Размер потока : 926 Мбайт (90%)
Аудио #1
Идентификатор : 189 (0xBD)-128 (0x80)
Формат : AC-3
Формат/Информация : Audio Coding 3
Расширение режима : CM (complete main)
Параметр Endianness формата : Big
Режим смешивания : DVD-Video
Продолжительность : 25 м.
Вид битрейта : Постоянный
Битрейт : 192 Кбит/сек
Каналы : 2 канала
Расположение каналов : Front: L R
Частота : 48,0 КГц
Битовая глубина : 16 бит
Метод сжатия : С потерями
Задержка видео : -80 мс.
Размер потока : 35,6 Мбайт (3%)
Аудио #2
Идентификатор : 189 (0xBD)-129 (0x81)
Формат : AC-3
Формат/Информация : Audio Coding 3
Расширение режима : CM (complete main)
Параметр Endianness формата : Big
Режим смешивания : DVD-Video
Продолжительность : 25 м.
Вид битрейта : Постоянный
Битрейт : 224 Кбит/сек
Каналы : 2 канала
Расположение каналов : Front: L R
Частота : 48,0 КГц
Битовая глубина : 16 бит
Метод сжатия : С потерями
Задержка видео : -80 мс.
Размер потока : 41,5 Мбайт (4%)
Меню

Постеры

Скриншоты меню



Display posts:    

Current time is: 04-Jun 04:51

All times are UTC ± 0


You cannot post new topics in this forum
You cannot reply to topics in this forum
You cannot edit your posts in this forum
You cannot delete your posts in this forum
You cannot vote in polls in this forum
You cannot attach files in this forum
You cannot download files in this forum

!ATTENTION!
The site does not give electronic versions of products, and is engaged only in a collecting and cataloguing of the references sent and published at a forum by our readers. If you are the legal owner of any submitted material and do not wish that the reference to it was in our catalogue, contact us and we shall immediately remove her. Files for an exchange on tracker are given by users of a site, and the administration does not bear the responsibility for their maintenance. The request to not fill in the files protected by copyrights, and also files of the illegal maintenance!