Ивановский Торрент трекер
Яндекс.Погода
Статистика раздачи
Размер:  14.09 GB   |    Зарегистрирован:  5 месяцев 13 дней   |    Скачан:  0 раз
Сидов:  40  [  0 KB/s  ]   Личеров:  2  [  0 KB/s  ]   Подробная статистика пиров
 
     
 
 

[Цитировать]
HUNTER

Форсаж 8 / The Fate of the Furious
Театральная версия / Theatrical Cut
«Их дороги расходятся»- Год выпуска: 2017
Страна: Китай, США, Япония
Жанр: боевик, триллер, криминал, приключения
Продолжительность: 02:16:57
Перевод: Профессиональный (полное дублирование)
Перевод 2: Одноголосый закадровый - Д. Есарев
Субтитры: Russian (Captions, Full (BluRay)), English (Full (BluRay), Full (SDH, Amazon))
Оригинальная аудиодорожка: английская- -Режиссер: Ф. Гэри Грей / F. Gary Gray
Продюсер: Рикардо Дель Рио, Вин Дизель, Майкл Фоттрел
Сценарий: Крис Морган, Гэри Скотт Томпсон-В ролях: Вин Дизель, Дуэйн Джонсон, Джейсон Стэйтем, Мишель Родригес, Тайриз Гибсон, Лудакрис, Натали Эммануэль, Курт Рассел, Скотт Иствуд, Шарлиз Терон-Описание:
Пристегните ремни — гонка продолжается. Гавана, Берлин, Нью-Йорк — для самой крутой команды в мире нет ничего невозможного, пока они вместе. Но когда на их пути окажется одна из самых красивых женщин на планете и по совместительству королева киберпреступности, дороги друзей разойдутся.-Доп. информация:
- Исходная вебка взята с amazon;
- За Есарева спасибо переулку переводмана, дубляж с bluray.-Тип релиза: WEB-DL 1080p SAMPLE
Контейнер: MKV
Видео: MPEG4 Video (H264) 1920x1080 23.976fps ~10300Kbps
Аудио#1: Russian: 48 kHz, DTS, 3/2 (L,C,R,l,r) + LFE ch, ~768.00 kbps avg |Дубляж - BluRay|
Аудио#2: Russian: 48 kHz, DTS, 3/2 (L,C,R,l,r) + LFE ch, ~1509.00 kbps avg |Одноголосый закадровый - Д. Есарев|
Аудио#3: English: 48 kHz, DTS, 3/2 (L,C,R,l,r) + LFE ch, ~1509.00.00 kbps avg |Оригинал - BluRay|
Аудио#4: English: 48 kHz, E-AC3, 3/2 (L,C,R,l,r) + LFE ch, ~640.00.00 kbps avg |Оригинал - Amazon|
Субтитры: SoftSub (SRT)
-

MediaInfo

Код:General
Unique ID : 189731649445201878947725960620862325594 (0x8EBCFC8BAFCA67548A3954395017C35A)
Complete name : D:\Видео\HD\The.Fate.of.the.Furious.2017.Theatrical.Cut.Open.Matte.1080p.WEB-DL.2xRus.Eng.mkv
Format : Matroska
Format version : Version 4 / Version 2
File size : 14.1 GiB
Duration : 2 h 16 min
Overall bit rate mode : Variable
Overall bit rate : 14.7 Mb/s
Movie name : The.Fate.of.the.Furious.2017.Theatrical.Cut.Open.Matte.1080p.WEB-DL.2xRus.Eng-spartanec163
Encoded date : UTC 2018-01-18 16:09:21
Writing application : mkvmerge v8.3.0 ('Over the Horizon') 64bit
Writing library : libebml v1.3.1 + libmatroska v1.4.2
Video
ID : 1
Format : AVC
Format/Info : Advanced Video Codec
Format profile : High@L4
Format settings : CABAC / 4 Ref Frames
Format settings, CABAC : Yes
Format settings, RefFrames : 4 frames
Codec ID : V_MPEG4/ISO/AVC
Duration : 2 h 16 min
Bit rate mode : Variable
Bit rate : 10.3 Mb/s
Maximum bit rate : 15.0 Mb/s
Width : 1 920 pixels
Height : 1 080 pixels
Display aspect ratio : 16:9
Frame rate mode : Constant
Frame rate : 23.976 (24000/1001) FPS
Color space : YUV
Chroma subsampling : 4:2:0
Bit depth : 8 bits
Scan type : Progressive
Bits/(Pixel*Frame) : 0.207
Stream size : 9.85 GiB (70%)
Title : WEB-DL 1080p (Amazon)
Language : English
Default : Yes
Forced : No
Color range : Limited
Color primaries : BT.709
Transfer characteristics : BT.709
Matrix coefficients : BT.709
Audio #1
ID : 2
Format : DTS
Format/Info : Digital Theater Systems
Codec ID : A_DTS
Duration : 2 h 16 min
Bit rate mode : Constant
Bit rate : 768 kb/s
Channel(s) : 6 channels
Channel positions : Front: L C R, Side: L R, LFE
Sampling rate : 48.0 kHz
Frame rate : 93.750 FPS (512 SPF)
Bit depth : 24 bits
Compression mode : Lossy
Stream size : 752 MiB (5%)
Title : DTS 5.1 768Kbps (Дубляж - BluRay)
Language : Russian
Default : Yes
Forced : No
Audio #2
ID : 3
Format : DTS
Format/Info : Digital Theater Systems
Codec ID : A_DTS
Duration : 2 h 16 min
Bit rate mode : Constant
Bit rate : 1 509 kb/s
Channel(s) : 6 channels
Channel positions : Front: L C R, Side: L R, LFE
Sampling rate : 48.0 kHz
Frame rate : 93.750 FPS (512 SPF)
Bit depth : 24 bits
Compression mode : Lossy
Stream size : 1.44 GiB (10%)
Title : DTS 5.1 1509Kbps (Одноголосый закадровый - Д. Есарев)
Language : Russian
Default : No
Forced : No
Audio #3
ID : 4
Format : DTS
Format/Info : Digital Theater Systems
Codec ID : A_DTS
Duration : 2 h 16 min
Bit rate mode : Constant
Bit rate : 1 509 kb/s
Channel(s) : 6 channels
Channel positions : Front: L C R, Side: L R, LFE
Sampling rate : 48.0 kHz
Frame rate : 93.750 FPS (512 SPF)
Bit depth : 24 bits
Compression mode : Lossy
Stream size : 1.44 GiB (10%)
Title : DTS 5.1 1509Kbps (Оригинал - BluRay)
Language : English
Default : No
Forced : No
Audio #4
ID : 5
Format : E-AC-3
Format/Info : Enhanced Audio Coding 3
Codec ID : A_EAC3
Duration : 2 h 16 min
Bit rate mode : Constant
Bit rate : 640 kb/s
Channel(s) : 6 channels
Channel positions : Front: L C R, Side: L R, LFE
Sampling rate : 48.0 kHz
Frame rate : 187.500 FPS (256 SPF)
Compression mode : Lossy
Stream size : 627 MiB (4%)
Title : E-AC3 5.1 640Kbps (Оригинал - Amazon)
Language : English
Service kind : Complete Main
Default : No
Forced : No
Text #1
ID : 6
Format : UTF-8
Codec ID : S_TEXT/UTF8
Codec ID/Info : UTF-8 Plain Text
Duration : 2 h 7 min
Bit rate : 1 b/s
Count of elements : 43
Stream size : 1.57 KiB (0%)
Title : Captions, BluRay
Language : Russian
Default : Yes
Forced : No
Text #2
ID : 7
Format : UTF-8
Codec ID : S_TEXT/UTF8
Codec ID/Info : UTF-8 Plain Text
Duration : 2 h 14 min
Bit rate : 76 b/s
Count of elements : 1513
Stream size : 75.9 KiB (0%)
Title : Full, BluRay
Language : Russian
Default : No
Forced : No
Text #3
ID : 8
Format : UTF-8
Codec ID : S_TEXT/UTF8
Codec ID/Info : UTF-8 Plain Text
Duration : 2 h 3 min
Bit rate : 51 b/s
Count of elements : 1516
Stream size : 46.9 KiB (0%)
Title : Full, BluRay
Language : English
Default : No
Forced : No
Text #4
ID : 9
Format : UTF-8
Codec ID : S_TEXT/UTF8
Codec ID/Info : UTF-8 Plain Text
Duration : 2 h 16 min
Bit rate : 67 b/s
Count of elements : 2360
Stream size : 67.5 KiB (0%)
Title : Full, SDH, Amazon
Language : English
Default : No
Forced : No
-

Скриншоты сравнения

WEB-DL.................................BDRip 1080p



-
[iv-torrents.ru].t82618.torrent
Торрент: Зарегистрирован [ 2018-08-05 17:06 ] · 96C4898B3E69C4B6F7E003AF9D788F0A1BB65737

Скачать .torrent

Скачать

71 KB

Статус: проверено
Скачан: 0 раз
Размер: 14.09 GB
terms.php
Похожие темы


Показать сообщения:    

Текущее время: 19-Янв 11:04

Часовой пояс: UTC ± 0


Вы не можете начинать темы
Вы не можете отвечать на сообщения
Вы не можете редактировать свои сообщения
Вы не можете удалять свои сообщения
Вы не можете голосовать в опросах
Вы не можете прикреплять файлы к сообщениям
Вы можете скачивать файлы

!ВНИМАНИЕ!
Сайт не предоставляет электронные версии произведений, а занимается лишь коллекционированием и каталогизацией ссылок, присылаемых и публикуемых на форуме нашими читателями. Если вы являетесь правообладателем какого-либо представленного материала и не желаете, чтобы ссылка на него находилась в нашем каталоге, свяжитесь с нами, и мы незамедлительно удалим ее. Файлы для обмена на трекере предоставлены пользователями сайта, и администрация не несет ответственности за их содержание. Просьба не заливать файлы, защищенные авторскими правами, а также файлы нелегального содержания!