Ивановский Торрент трекер
Яндекс.Погода
 

[Цитировать]
HUNTER

Formula Renault 3.5 2015. Этап 03 Спа (Бельгия). Гонка 2. Спорт 1 HD HDTVRemux

Вид спорта: Автогонки
Дата/Год выпуска: 31.05.2015
Язык комментариев: Русский (Владимир Башмаков)
Описание: 2 гонка 3 этапа Еврокубка Формулы-Рено 3.5, прошедшего в Бельгии на трассе "Спа-Франкоршам" в рамках World Series by Renault 2015 года
Автор рипа/записи: Ales
Качество: HDTV
Формат видео: MKV
Видео: AVC H264, 1920x1080, 25 fps, 11.3 Mbps
Аудио: MP2 2.0 48.0 KHz 192 Kbps

Продолжительность

00:52:23

MediaInfo

GeneralUnique ID : 236350711533136988164083513747346312630 (0xB1CF7DC3FE9C32548F42231E4A004DB6)Complete name : H:\WSR35\WSR35_2015_R03_BEL_RACE2_HDTVREMUX.mkvFormat : MatroskaFormat version : Version 4 / Version 2File size : 4.31 GiBDuration : 52mn 23sOverall bit rate : 11.8 MbpsEncoded date : UTC 2015-06-01 07:58:11Writing application : mkvmerge v7.9.0 ('Birds') 64bitWriting library : libebml v1.3.1 + libmatroska v1.4.2DURATION : 00:52:22.985000000NUMBER_OF_FRAMES : 130877NUMBER_OF_BYTES : 75385152_STATISTICS_WRITING_APP : mkvmerge v7.9.0 ('Birds') 64bit_STATISTICS_WRITING_DATE_UTC : 2015-06-01 07:58:11_STATISTICS_TAGS : BPS DURATION NUMBER_OF_FRAMES NUMBER_OF_BYTES
VideoID : 1Format : AVCFormat/Info : Advanced Video CodecFormat profile : Main@L4.0Format settings, CABAC : YesFormat settings, ReFrames : 4 framesCodec ID : V_MPEG4/ISO/AVCDuration : 52mn 23sBit rate : 11.3 MbpsWidth : 1 920 pixelsHeight : 1 080 pixelsDisplay aspect ratio : 16:9Frame rate mode : ConstantFrame rate : 22.727 fpsOriginal frame rate : 25.000 fpsStandard : ComponentColor space : YUVChroma subsampling : 4:2:0Bit depth : 8 bitsScan type : InterlacedScan order : Top Field FirstBits/(Pixel*Frame) : 0.241Stream size : 4.15 GiB (96%)Default : YesForced : NoColor primaries : BT.709Transfer characteristics : BT.709Matrix coefficients : BT.709Color range : Limited
AudioID : 2Format : MPEG AudioFormat version : Version 1Format profile : Layer 2Codec ID : A_MPEG/L2Codec ID/Hint : MP2Duration : 52mn 23sBit rate mode : ConstantBit rate : 192 KbpsChannel(s) : 2 channelsSampling rate : 48.0 KHzCompression mode : LossyDelay relative to video : -13msStream size : 71.9 MiB (2%)Language : RussianDefault : YesForced : No

Скриншоты




Показать сообщения:    

Текущее время: 24-Окт 10:22

Часовой пояс: UTC - 1


Вы не можете начинать темы
Вы не можете отвечать на сообщения
Вы не можете редактировать свои сообщения
Вы не можете удалять свои сообщения
Вы не можете голосовать в опросах
Вы не можете прикреплять файлы к сообщениям
Вы не можете скачивать файлы

!ВНИМАНИЕ!
Сайт не предоставляет электронные версии произведений, а занимается лишь коллекционированием и каталогизацией ссылок, присылаемых и публикуемых на форуме нашими читателями. Если вы являетесь правообладателем какого-либо представленного материала и не желаете, чтобы ссылка на него находилась в нашем каталоге, свяжитесь с нами, и мы незамедлительно удалим ее. Файлы для обмена на трекере предоставлены пользователями сайта, и администрация не несет ответственности за их содержание. Просьба не заливать файлы, защищенные авторскими правами, а также файлы нелегального содержания!