Ивановский Торрент трекер
Яндекс.Погода
 

[Цитировать]
HUNTER

Formula Renault 3.5 2015. Этап 02 Монако. Обзор гонки. Спорт 1 HD HDTVRemux

Вид спорта: Автогонки
Дата/Год выпуска: 24.05.2015
Язык комментариев: Русский (Владимир Башмаков)
Описание: Обзор гонки Еврокубка Формулы-Рено 3.5, прошедшего на улицах Княжества Монако в рамках World Series by Renault 2015 года
В этом обзоре отсутствуют 7-19 и 29-35 минуты гонки
Автор рипа/записи: Ales
Качество: HDTV
Формат видео: MKV
Видео: AVC H264, 1920x1080, 25 fps, 12.5 Mbps
Аудио: MP2 2.0 48.0 KHz 192 Kbps

Продолжительность

00:32:52

MediaInfo

GeneralUnique ID : 229761343595554860530520206770383874622 (0xACDA6CD7E5B9BB4C932F60A8FF03EA3E)Complete name : H:\WSR35\WSR35_2015_R02_MON_RACEREVIEW_HDTVREMUX.mkvFormat : MatroskaFormat version : Version 4 / Version 2File size : 2.97 GiBDuration : 32mn 52sOverall bit rate : 12.9 MbpsEncoded date : UTC 2015-05-31 20:24:45Writing application : mkvmerge v7.9.0 ('Birds') 64bitWriting library : libebml v1.3.1 + libmatroska v1.4.2DURATION : 00:32:52.291000000NUMBER_OF_FRAMES : 82076NUMBER_OF_BYTES : 47275776_STATISTICS_WRITING_APP : mkvmerge v7.9.0 ('Birds') 64bit_STATISTICS_WRITING_DATE_UTC : 2015-05-31 20:24:45_STATISTICS_TAGS : BPS DURATION NUMBER_OF_FRAMES NUMBER_OF_BYTES
VideoID : 1Format : AVCFormat/Info : Advanced Video CodecFormat profile : Main@L4.0Format settings, CABAC : YesFormat settings, ReFrames : 4 framesCodec ID : V_MPEG4/ISO/AVCDuration : 32mn 52sBit rate : 12.5 MbpsWidth : 1 920 pixelsHeight : 1 080 pixelsDisplay aspect ratio : 16:9Frame rate mode : ConstantFrame rate : 22.727 fpsOriginal frame rate : 25.000 fpsStandard : ComponentColor space : YUVChroma subsampling : 4:2:0Bit depth : 8 bitsScan type : InterlacedScan order : Top Field FirstBits/(Pixel*Frame) : 0.265Stream size : 2.86 GiB (97%)Default : YesForced : NoColor primaries : BT.709Transfer characteristics : BT.709Matrix coefficients : BT.709Color range : Limited
AudioID : 2Format : MPEG AudioFormat version : Version 1Format profile : Layer 2Codec ID : A_MPEG/L2Codec ID/Hint : MP2Duration : 32mn 52sBit rate mode : ConstantBit rate : 192 KbpsChannel(s) : 2 channelsSampling rate : 48.0 KHzCompression mode : LossyDelay relative to video : -13msStream size : 45.1 MiB (1%)Language : RussianDefault : YesForced : No

Скриншоты



0 человек читают эту тему: 0 пользователей, 0 скрытых пользователей, 0 гостей

Показать сообщения:    

Текущее время: 23-Авг 03:35

Часовой пояс: UTC - 1


Вы не можете начинать темы
Вы не можете отвечать на сообщения
Вы не можете редактировать свои сообщения
Вы не можете удалять свои сообщения
Вы не можете голосовать в опросах
Вы не можете прикреплять файлы к сообщениям
Вы не можете скачивать файлы

!ВНИМАНИЕ!
Сайт не предоставляет электронные версии произведений, а занимается лишь коллекционированием и каталогизацией ссылок, присылаемых и публикуемых на форуме нашими читателями. Если вы являетесь правообладателем какого-либо представленного материала и не желаете, чтобы ссылка на него находилась в нашем каталоге, свяжитесь с нами, и мы незамедлительно удалим ее. Файлы для обмена на трекере предоставлены пользователями сайта, и администрация не несет ответственности за их содержание. Просьба не заливать файлы, защищенные авторскими правами, а также файлы нелегального содержания!