Важное объявление!
У Нас Все раздачи мультитрекерные, при нуле пиров в релизах, можете смело вставать на закачку!
 
Автор Сообщение

HUNTER

Стаж:
4 года 4 месяца
Сообщений:
56733

Репутация: 101

[+] [-]
Вне форума [Профиль] [ЛС]

Formula Renault 3.5 2014 / Этап 01 / Monza / Спорт 1 HD, Eurosport HD
Вид спорта: World Series by Renault
Дата/Год выпуска: 13.04.14
Язык комментариев: русский
Спорт 1 HD - Наталья Фабричнова, Алексей Попов
Eurosport HD - Оксана Косаченко, Александр Кабановский
Автор записи: SashaR.
Качество: DVB-S2 Remux
Формат видео: TS
Видео: AVC, 1920x1080, 16:9, 12.6 Mbps, 25 fps
Аудио: MP2, 192 Kbps, 48.0 kHz, 2 channels

Media Info

H:\Раздачи\World Series by Renault 2014. Этап 01. Monza\WSR 3.5 Race 2 (Спорт 1 HD).ts
General #6
ID : 6 (0x6)
Complete name : H:\Раздачи\World Series by Renault 2014. Этап 01. Monza\WSR 3.5 Race 2 (Спорт 1 HD).ts
Format : MPEG-TS
File size : 4.93 GiB
Duration : 52mn 31s
Overall bit rate mode : Variable
Overall bit rate : 13.4 Mbps
Video #303
ID : 303 (0x12F)
Menu ID : 20103 (0x4E87)
Format : AVC
Format/Info : Advanced Video Codec
Format profile : High@L4.0
Format settings, CABAC : Yes
Format settings, ReFrames : 3 frames
Codec ID : 27
Duration : 52mn 30s
Bit rate : 12.6 Mbps
Width : 1 920 pixels
Height : 1 080 pixels
Display aspect ratio : 16:9
Frame rate : 25.000 fps
Standard : Component
Color space : YUV
Chroma subsampling : 4:2:0
Bit depth : 8 bits
Scan type : Interlaced
Scan order : Top Field First
Bits/(Pixel*Frame) : 0.243
Stream size : 4.62 GiB (94%)
Color primaries : BT.709
Transfer characteristics : BT.709
Matrix coefficients : BT.709
Audio #403
ID : 403 (0x193)
Menu ID : 20103 (0x4E87)
Format : MPEG Audio
Format version : Version 1
Format profile : Layer 2
Codec ID : 4
Duration : 52mn 31s
Bit rate mode : Constant
Bit rate : 192 Kbps
Channel count : 2 channels
Sampling rate : 48.0 KHz
Compression mode : Lossy
Delay relative to video : 37ms
Stream size : 72.1 MiB (1%)
Language : Russian
H:\Раздачи\World Series by Renault 2014. Этап 01. Monza\WSR 3.5 Race 2 (Eurosport 2 HD).ts
General #6
ID : 6 (0x6)
Complete name : H:\Раздачи\World Series by Renault 2014. Этап 01. Monza\WSR 3.5 Race 2 (Eurosport 2 HD).ts
Format : MPEG-TS
File size : 6.39 GiB
Duration : 1h 9mn
Overall bit rate mode : Variable
Overall bit rate : 13.1 Mbps
Video #538
ID : 538 (0x21A)
Menu ID : 1 (0x1)
Format : AVC
Format/Info : Advanced Video Codec
Format profile : High@L4.0
Format settings, CABAC : Yes
Format settings, ReFrames : 4 frames
Codec ID : 27
Duration : 1h 9mn
Bit rate : 11.7 Mbps
Width : 1 920 pixels
Height : 1 080 pixels
Display aspect ratio : 16:9
Frame rate : 25.000 fps
Color space : YUV
Chroma subsampling : 4:2:0
Bit depth : 8 bits
Scan type : MBAFF
Bits/(Pixel*Frame) : 0.225
Stream size : 5.70 GiB (89%)
Language : English
Color primaries : BT.709
Transfer characteristics : BT.709
Matrix coefficients : BT.709
Audio #738
ID : 738 (0x2E2)
Menu ID : 1 (0x1)
Format : MPEG Audio
Format version : Version 1
Format profile : Layer 2
Codec ID : 4
Duration : 1h 9mn
Bit rate mode : Constant
Bit rate : 192 Kbps
Channel count : 2 channels
Sampling rate : 48.0 KHz
Compression mode : Lossy
Delay relative to video : 19ms
Stream size : 95.9 MiB (1%)
Language : German
Audio #5385
ID : 5385 (0x1509)
Menu ID : 1 (0x1)
Format : MPEG Audio
Format version : Version 1
Format profile : Layer 2
Codec ID : 4
Duration : 1h 9mn
Bit rate mode : Constant
Bit rate : 192 Kbps
Channel count : 2 channels
Sampling rate : 48.0 KHz
Compression mode : Lossy
Delay relative to video : 96ms
Stream size : 95.9 MiB (1%)
Language : German
Audio #5391
ID : 5391 (0x150F)
Menu ID : 1 (0x1)
Format : MPEG Audio
Format version : Version 1
Format profile : Layer 2
Codec ID : 4
Duration : 1h 9mn
Bit rate mode : Constant
Bit rate : 192 Kbps
Channel count : 2 channels
Sampling rate : 48.0 KHz
Compression mode : Lossy
Delay relative to video : 99ms
Stream size : 95.9 MiB (1%)
Language : German
Audio #5392
ID : 5392 (0x1510)
Menu ID : 1 (0x1)
Format : MPEG Audio
Format version : Version 1
Format profile : Layer 2
Codec ID : 4
Duration : 1h 9mn
Bit rate mode : Constant
Bit rate : 192 Kbps
Channel count : 2 channels
Sampling rate : 48.0 KHz
Compression mode : Lossy
Delay relative to video : 8ms
Stream size : 95.9 MiB (1%)
Language : German

Продолжительность

WSR 3.5 Race 1 (Eurosport HD) - 00:53:15
WSR 3.5 Race 1 (Спорт 1 HD) - 00:58:33
WSR 3.5 Race 2 (Eurosport 2 HD) - 01:09:51
WSR 3.5 Race 2 (Спорт 1 HD) - 00:52:31

Скриншоты



_________________
Показать сообщения:    

Текущее время: Сегодня 00:49

Часовой пояс: GMT



Вы не можете начинать темы
Вы не можете отвечать на сообщения
Вы не можете редактировать свои сообщения
Вы не можете удалять свои сообщения
Вы не можете голосовать в опросах
Вы не можете прикреплять файлы к сообщениям
Вы не можете скачивать файлы