Важное объявление!
У Нас Все раздачи мультитрекерные, при нуле пиров в релизах, можете смело вставать на закачку!
 
Автор Сообщение

HUNTER

Стаж:
4 года 4 месяца
Сообщений:
56808

Репутация: 101

[+] [-]
Вне форума [Профиль] [ЛС]

Formula Renault 2.0 2015. Этап 04. Сильверстоун (Великобритания). Гонка 3.

Вид спорта: Автогонки
Дата/Год выпуска: 06.09.15
Язык комментариев: Русский (Владимир Башмаков)
Описание: 3 гонка 4 этапа Еврокубка Формулы-Рено 2.0, прошедшего в Великобритании на трассе "Сильверстоун" в рамках World Series by Renault 2015 года.
Автор рипа/записи: Ales
Качество: DVB-S2 Remux
Формат видео: MKV
Видео: AVC, 1920x1080, 25 fps, 11.7 Mbps
Аудио: MP2, 2.0, 48 kHz, 192 Kbps

Продолжительность

00:35:13

MediaInfo

GeneralUnique ID : 250832613990404069256125880739352784264 (0xBCB49AAEE71B93D28EBBFC707A4FAD88)Complete name : F:\WSR20\WSR20_2015_R04_ENG_RACE3_HDTVREMUX.mkvFormat : MatroskaFormat version : Version 4 / Version 2File size : 2.97 GiBDuration : 35mn 13sOverall bit rate : 12.1 MbpsEncoded date : UTC 2015-09-06 17:45:38Writing application : mkvmerge v8.3.0 ('Over the Horizon') 64bitWriting library : libebml v1.3.1 + libmatroska v1.4.2DURATION : 00:35:13.200000000NUMBER_OF_FRAMES : 88050NUMBER_OF_BYTES : 50716800_STATISTICS_WRITING_APP : mkvmerge v8.3.0 ('Over the Horizon') 64bit_STATISTICS_WRITING_DATE_UTC : 2015-09-06 17:45:38_STATISTICS_TAGS : BPS DURATION NUMBER_OF_FRAMES NUMBER_OF_BYTES
VideoID : 1Format : AVCFormat/Info : Advanced Video CodecFormat profile : Main@L4Format settings, CABAC : YesFormat settings, ReFrames : 4 framesCodec ID : V_MPEG4/ISO/AVCDuration : 35mn 13sBit rate : 11.7 MbpsWidth : 1 920 pixelsHeight : 1 080 pixelsDisplay aspect ratio : 16:9Frame rate mode : ConstantFrame rate : 25.000 fpsStandard : ComponentColor space : YUVChroma subsampling : 4:2:0Bit depth : 8 bitsScan type : InterlacedScan order : Top Field FirstBits/(Pixel*Frame) : 0.225Stream size : 2.87 GiB (96%)Default : YesForced : NoColor range : LimitedColor primaries : BT.709Transfer characteristics : BT.709Matrix coefficients : BT.709
AudioID : 2Format : MPEG AudioFormat version : Version 1Format profile : Layer 2Codec ID : A_MPEG/L2Codec ID/Hint : MP2Duration : 35mn 13sBit rate mode : ConstantBit rate : 192 KbpsChannel(s) : 2 channelsSampling rate : 48.0 KHzCompression mode : LossyDelay relative to video : -17msStream size : 48.4 MiB (2%)Language : RussianDefault : YesForced : No

Скриншоты


_________________
Показать сообщения:    

Текущее время: Сегодня 12:45

Часовой пояс: GMT



Вы не можете начинать темы
Вы не можете отвечать на сообщения
Вы не можете редактировать свои сообщения
Вы не можете удалять свои сообщения
Вы не можете голосовать в опросах
Вы не можете прикреплять файлы к сообщениям
Вы не можете скачивать файлы