Важное объявление!
У Нас Все раздачи мультитрекерные, при нуле пиров в релизах, можете смело вставать на закачку!
 
Автор Сообщение

HUNTER

Стаж:
4 года 4 месяца
Сообщений:
56749

Репутация: 101

[+] [-]
Вне форума [Профиль] [ЛС]

Formula Renault 2.0 2015. Этап 02 Спа (Бельгия). Гонка 2. Спорт 1 HD HDTVRemux

Вид спорта: Автогонки
Дата/Год выпуска: 31.05.15
Язык комментариев: Русский (Владимир Башмаков)
Описание: 2 гонка 2 этапа Еврокубка Формулы-Рено 2.0, прошедшего в Бельгии на трассе "Спа-Франкоршам" в рамках World Series by Renault 2015 года.
Автор рипа/записи: Ales

MediaInfo

GeneralUnique ID : 183112379865325622578371283528152633105 (0x89C2295BCDC2BD5FA65602DFBC05CF11)Complete name : H:\WSR20\WSR20_2015_R02_BEL_RACE2_HDTVREMUX.mkvFormat : MatroskaFormat version : Version 4 / Version 2File size : 2.80 GiBDuration : 38mn 36sOverall bit rate : 10.4 MbpsEncoded date : UTC 2015-05-31 14:13:30Writing application : mkvmerge v7.9.0 ('Birds') 64bitWriting library : libebml v1.3.1 + libmatroska v1.4.2DURATION : 00:38:36.096000000NUMBER_OF_FRAMES : 96504NUMBER_OF_BYTES : 55586304_STATISTICS_WRITING_APP : mkvmerge v7.9.0 ('Birds') 64bit_STATISTICS_WRITING_DATE_UTC : 2015-05-31 14:13:30_STATISTICS_TAGS : BPS DURATION NUMBER_OF_FRAMES NUMBER_OF_BYTES
VideoID : 1Format : AVCFormat/Info : Advanced Video CodecFormat profile : Main@L4.0Format settings, CABAC : YesFormat settings, ReFrames : 4 framesCodec ID : V_MPEG4/ISO/AVCDuration : 38mn 36sBit rate : 9 988 KbpsWidth : 1 920 pixelsHeight : 1 080 pixelsDisplay aspect ratio : 16:9Frame rate mode : ConstantFrame rate : 25.000 fpsStandard : ComponentColor space : YUVChroma subsampling : 4:2:0Bit depth : 8 bitsScan type : InterlacedScan order : Top Field FirstBits/(Pixel*Frame) : 0.193Stream size : 2.69 GiB (96%)Default : YesForced : NoColor primaries : BT.709Transfer characteristics : BT.709Matrix coefficients : BT.709Color range : Limited
AudioID : 2Format : MPEG AudioFormat version : Version 1Format profile : Layer 2Codec ID : A_MPEG/L2Codec ID/Hint : MP2Duration : 38mn 36sBit rate mode : ConstantBit rate : 192 KbpsChannel(s) : 2 channelsSampling rate : 48.0 KHzCompression mode : LossyDelay relative to video : 123msStream size : 53.0 MiB (2%)Language : RussianDefault : YesForced : No
Качество: HDTVRemux
Формат видео: MKV
Видео: AVC, 1920x1080, 25 fps, 9 998 Kbps
Аудио: MP2, 2.0, 48 kHz, 192 Kbps

Продолжительность

00:38:36

Скриншоты




_________________
Показать сообщения:    

Текущее время: Сегодня 01:17

Часовой пояс: GMT



Вы не можете начинать темы
Вы не можете отвечать на сообщения
Вы не можете редактировать свои сообщения
Вы не можете удалять свои сообщения
Вы не можете голосовать в опросах
Вы не можете прикреплять файлы к сообщениям
Вы не можете скачивать файлы