Важное объявление!
У Нас Все раздачи мультитрекерные, при нуле пиров в релизах, можете смело вставать на закачку!
 
Автор Сообщение

HUNTER

Стаж:
4 года 4 месяца
Сообщений:
56839

Репутация: 101

[+] [-]
Вне форума [Профиль] [ЛС]

Formula Renault 2.0 2015. Этап 02 Спа (Бельгия). Гонка 1. Спорт 1 HD HDTVRemux

Вид спорта: Автогонки
Дата/Год выпуска: 30/05/2015
Язык комментариев: Русский (Владимир Башмаков)
Описание: 1 гонка 2 этапа Еврокубка Формулы-Рено 2.0, прошедшего в Бельгии на трассе "Спа-Франкоршам" в рамках World Series by Renault 2015 года.
Автор рипа/записи: Ales

MediaInfo

GeneralUnique ID : 148614168155654413783893819554733025476 (0x6FCE0C3384DCE08B16D540C32624E8C4)Complete name : H:\WSR20\WSR20_2015_R02_BEL_RACE1_HDTVREMUX.mkvFormat : MatroskaFormat version : Version 4 / Version 2File size : 2.88 GiBDuration : 39mn 43sOverall bit rate : 10.4 MbpsWriting application : Lavf56.15.102Writing library : Lavf56.15.102
VideoID : 1Format : AVCFormat/Info : Advanced Video CodecFormat profile : Main@L4.0Format settings, CABAC : YesFormat settings, ReFrames : 4 framesCodec ID : V_MPEG4/ISO/AVCDuration : 39mn 43sBit rate : 9 998 KbpsWidth : 1 920 pixelsHeight : 1 080 pixelsDisplay aspect ratio : 16:9Original display aspect ratio : 16:9Frame rate mode : ConstantFrame rate : 25.000 fpsStandard : ComponentColor space : YUVChroma subsampling : 4:2:0Bit depth : 8 bitsScan type : InterlacedScan order : Top Field FirstBits/(Pixel*Frame) : 0.193Stream size : 2.77 GiB (96%)Default : YesForced : NoColor primaries : BT.709Transfer characteristics : BT.709Matrix coefficients : BT.709Color range : Limited
AudioID : 2Format : MPEG AudioFormat version : Version 1Format profile : Layer 2Codec ID : A_MPEG/L2Codec ID/Hint : MP2Duration : 39mn 43sBit rate mode : ConstantBit rate : 192 KbpsChannel(s) : 2 channelsSampling rate : 48.0 KHzCompression mode : LossyStream size : 54.5 MiB (2%)Language : RussianDefault : YesForced : No
Качество: HDTV
Формат видео: MKV
Видео: AVC, 1920x1080, 25 fps, 9 998 Kbps
Аудио: MP2, 2.0, 48 kHz, 192 Kbps

Продолжительность

00:39:43

Скриншоты




_________________
Показать сообщения:    

Текущее время: Сегодня 03:00

Часовой пояс: GMT



Вы не можете начинать темы
Вы не можете отвечать на сообщения
Вы не можете редактировать свои сообщения
Вы не можете удалять свои сообщения
Вы не можете голосовать в опросах
Вы не можете прикреплять файлы к сообщениям
Вы не можете скачивать файлы