Важное объявление!
У Нас Все раздачи мультитрекерные, при нуле пиров в релизах, можете смело вставать на закачку!
 
Автор Сообщение

HUNTER

Стаж:
4 года 11 месяцев
Сообщений:
66039

Репутация: 101

[+] [-]
Вне форума [Профиль] [ЛС]

Formula Renault 2.0 2015. Этап 05. Нюрбургринг (Германия). Гонка 1.

Вид спорта: Автогонки
Дата/Год выпуска: 12.09.15
Язык комментариев: Русский (Владимир Башмаков)
Описание: 1 гонка 5 этапа Еврокубка Формулы-Рено 2.0, прошедшего в Германии на трассе "Нюрбургринг" в рамках World Series by Renault 2015 года.
Автор рипа/записи: Ales
Качество: DVB-S2 Remux
Формат видео: MKV
Видео: AVC, 1920x1080, 25 fps, 10.2 Mbps
Аудио: MP2, 2.0, 48 kHz, 192 Kbps

Продолжительность

00:39:13

MediaInfo

GeneralUnique ID : 218719562167802042456412062118044421288 (0xA48BDAFCD1DC82D6B21BFBED15CECCA8)Complete name : F:\WSR20\WSR20_2015_R05_GER_RACE1_HDTVREMUX.mkvFormat : MatroskaFormat version : Version 4 / Version 2File size : 2.91 GiBDuration : 39mn 13sOverall bit rate : 10.6 MbpsEncoded date : UTC 2015-09-12 15:52:53Writing application : mkvmerge v8.3.0 ('Over the Horizon') 64bitWriting library : libebml v1.3.1 + libmatroska v1.4.2DURATION : 00:39:13.872000000NUMBER_OF_FRAMES : 98078NUMBER_OF_BYTES : 56492928_STATISTICS_WRITING_APP : mkvmerge v8.3.0 ('Over the Horizon') 64bit_STATISTICS_WRITING_DATE_UTC : 2015-09-12 15:52:53_STATISTICS_TAGS : BPS DURATION NUMBER_OF_FRAMES NUMBER_OF_BYTES
VideoID : 1Format : AVCFormat/Info : Advanced Video CodecFormat profile : Main@L4Format settings, CABAC : YesFormat settings, ReFrames : 4 framesCodec ID : V_MPEG4/ISO/AVCDuration : 39mn 13sBit rate : 10.2 MbpsWidth : 1 920 pixelsHeight : 1 080 pixelsDisplay aspect ratio : 16:9Frame rate mode : ConstantFrame rate : 23.438 fpsOriginal frame rate : 25.000 fpsStandard : ComponentColor space : YUVChroma subsampling : 4:2:0Bit depth : 8 bitsScan type : InterlacedScan order : Top Field FirstBits/(Pixel*Frame) : 0.210Stream size : 2.80 GiB (96%)Default : YesForced : NoColor range : LimitedColor primaries : BT.709Transfer characteristics : BT.709Matrix coefficients : BT.709
AudioID : 2Format : MPEG AudioFormat version : Version 1Format profile : Layer 2Codec ID : A_MPEG/L2Codec ID/Hint : MP2Duration : 39mn 13sBit rate mode : ConstantBit rate : 192 KbpsChannel(s) : 2 channelsSampling rate : 48.0 KHzCompression mode : LossyDelay relative to video : -22msStream size : 53.9 MiB (2%)Language : RussianDefault : YesForced : No

Скриншоты


_________________
Показать сообщения:    

Текущее время: Сегодня 06:23

Часовой пояс: GMT



Вы не можете начинать темы
Вы не можете отвечать на сообщения
Вы не можете редактировать свои сообщения
Вы не можете удалять свои сообщения
Вы не можете голосовать в опросах
Вы не можете прикреплять файлы к сообщениям
Вы не можете скачивать файлы