Важное объявление!
У Нас Все раздачи мультитрекерные, при нуле пиров в релизах, можете смело вставать на закачку!
Статистика раздачи
Размер:     |    Зарегистрирован:     |    Скачан:     |   
Нет
 
     
 
 
Автор Сообщение

HUNTER

Стаж:
5 лет
Сообщений:
68033

Репутация: 101

[+] [-]
Вне форума [Профиль] [ЛС]

Formula Renault 2.0 2015. Этап 03 Хунгароринг (Венгрия). Гонка 1. Спорт 1 HD HDTVRemux

Вид спорта: Автогонки
Дата/Год выпуска: 13.06.2015
Язык комментариев: Русский (Владимир Башмаков)
Описание: 1 гонка 3 этапа Еврокубка Формулы-Рено 2.0, прошедшего в Венгрии на трассе "Хунгароринг" в рамках World Series by Renault 2015 года.
Автор рипа/записи: Ales
Качество: HDTV
Формат видео: MKV
Видео: AVC, 1920x1080, 25 fps, 8 781 Kbps
Аудио: MP2, 2.0, 48 kHz, 192 Kbps

Продолжительность

00:30:21

MediaInfo

GeneralUnique ID : 224029387751278256367035293508300751191 (0xA88A7D99E19E1A718961F8A80780C157)Complete name : H:\WSR20\WSR20_2015_R03_HUN_RACE1_HDTVREMUX.mkvFormat : MatroskaFormat version : Version 4 / Version 2File size : 1.94 GiBDuration : 30mn 21sOverall bit rate : 9 155 KbpsEncoded date : UTC 2015-06-13 15:11:49Writing application : mkvmerge v7.9.0 ('Birds') 64bitWriting library : libebml v1.3.1 + libmatroska v1.4.2DURATION : 00:30:21.744000000NUMBER_OF_FRAMES : 75906NUMBER_OF_BYTES : 43721856_STATISTICS_WRITING_APP : mkvmerge v7.9.0 ('Birds') 64bit_STATISTICS_WRITING_DATE_UTC : 2015-06-13 15:11:49_STATISTICS_TAGS : BPS DURATION NUMBER_OF_FRAMES NUMBER_OF_BYTES
VideoID : 1Format : AVCFormat/Info : Advanced Video CodecFormat profile : Main@L4.0Format settings, CABAC : YesFormat settings, ReFrames : 4 framesCodec ID : V_MPEG4/ISO/AVCDuration : 30mn 21sBit rate : 8 781 KbpsWidth : 1 920 pixelsHeight : 1 080 pixelsDisplay aspect ratio : 16:9Frame rate mode : ConstantFrame rate : 23.438 fpsOriginal frame rate : 25.000 fpsStandard : ComponentColor space : YUVChroma subsampling : 4:2:0Bit depth : 8 bitsScan type : InterlacedScan order : Top Field FirstBits/(Pixel*Frame) : 0.181Stream size : 1.86 GiB (96%)Default : YesForced : NoColor primaries : BT.709Transfer characteristics : BT.709Matrix coefficients : BT.709Color range : Limited
AudioID : 2Format : MPEG AudioFormat version : Version 1Format profile : Layer 2Codec ID : A_MPEG/L2Codec ID/Hint : MP2Duration : 30mn 21sBit rate mode : ConstantBit rate : 192 KbpsChannel(s) : 2 channelsSampling rate : 48.0 KHzCompression mode : LossyDelay relative to video : -5msStream size : 41.7 MiB (2%)Language : RussianDefault : YesForced : No

Скриншоты


_________________
Показать сообщения:    

Текущее время: Сегодня 06:55

Часовой пояс: GMT



Вы не можете начинать темы
Вы не можете отвечать на сообщения
Вы не можете редактировать свои сообщения
Вы не можете удалять свои сообщения
Вы не можете голосовать в опросах
Вы не можете прикреплять файлы к сообщениям
Вы не можете скачивать файлы