Важное объявление!
У Нас Все раздачи мультитрекерные, при нуле пиров в релизах, можете смело вставать на закачку!
 
Автор Сообщение

HUNTER

Стаж:
4 года 9 месяцев
Сообщений:
65013

Репутация: 101

[+] [-]
Вне форума [Профиль] [ЛС]

Formula E Championships. 2014-2015. Гонка. Sky Sport 1 HD
Вид спорта: Автогонки
Дата/Год выпуска: 22.11.14
Язык комментариев: немецкий
Автор записи: SashaR.
Качество: DVB-S2 Remux
Формат видео: TS
Видео: 1920x1080, 16:9, 11.4 Mbps, 25 fps
Аудио: AC-3, 224 Kbps, 48.0 kHz, 2 channels

Media Info

J:\Раздачи\Formula E Championships. 2014-2015. Этап 2. Malaysia. Putrajaya ePrix. Гонка. Sky Sport 1 HD.ts
General #6
ID : 6 (0x6)
Complete name : J:\Раздачи\Formula E Championships. 2014-2015. Этап 2. Malaysia. Putrajaya ePrix. Гонка. Sky Sport 1 HD.ts
Format : MPEG-TS
File size : 7.79 GiB
Duration : 1h 26mn
Overall bit rate mode : Variable
Overall bit rate : 12.8 Mbps
Video #767
ID : 767 (0x2FF)
Menu ID : 129 (0x81)
Format : AVC
Format/Info : Advanced Video Codec
Format profile : High@L4.0
Format settings, CABAC : Yes
Format settings, ReFrames : 3 frames
Codec ID : 27
Duration : 1h 26mn
Bit rate : 11.4 Mbps
Width : 1 920 pixels
Height : 1 080 pixels
Display aspect ratio : 16:9
Frame rate : 25.000 fps
Standard : Component
Color space : YUV
Chroma subsampling : 4:2:0
Bit depth : 8 bits
Scan type : Interlaced
Scan order : Top Field First
Bits/(Pixel*Frame) : 0.220
Stream size : 6.91 GiB (89%)
Color primaries : BT.709
Transfer characteristics : BT.709
Matrix coefficients : BT.709
Audio #770
ID : 770 (0x302)
Menu ID : 129 (0x81)
Format : AC-3
Format/Info : Audio Coding 3
Mode extension : CM (complete main)
Format settings, Endianness : Big
Codec ID : 6
Duration : 1h 26mn
Bit rate mode : Constant
Bit rate : 192 Kbps
Channel count : 2 channels
Channel positions : Front: L R
Sampling rate : 48.0 KHz
Bit depth : 16 bits
Compression mode : Lossy
Delay relative to video : 104ms
Stream size : 119 MiB (1%)
Language : German
Language, more info : Clean effects
Audio #771
ID : 771 (0x303)
Menu ID : 129 (0x81)
Format : AC-3
Format/Info : Audio Coding 3
Mode extension : CM (complete main)
Format settings, Endianness : Big
Codec ID : 6
Duration : 1h 26mn
Bit rate mode : Constant
Bit rate : 384 Kbps
Channel count : 6 channels
Channel positions : Front: L C R, Side: L R, LFE
Sampling rate : 48.0 KHz
Bit depth : 16 bits
Compression mode : Lossy
Delay relative to video : 46ms
Stream size : 239 MiB (3%)
Language : German
Language, more info : Clean effects
Audio #772
ID : 772 (0x304)
Menu ID : 129 (0x81)
Format : AC-3
Format/Info : Audio Coding 3
Mode extension : CM (complete main)
Format settings, Endianness : Big
Codec ID : 6
Duration : 1h 26mn
Bit rate mode : Constant
Bit rate : 224 Kbps
Channel count : 2 channels
Channel positions : Front: L R
Sampling rate : 48.0 KHz
Bit depth : 16 bits
Compression mode : Lossy
Delay relative to video : 99ms
Stream size : 139 MiB (2%)
Language : English
Language, more info : Clean effects

Продолжительность

01:26:55

Скриншоты


_________________
Показать сообщения:    

Текущее время: Сегодня 03:12

Часовой пояс: GMT



Вы не можете начинать темы
Вы не можете отвечать на сообщения
Вы не можете редактировать свои сообщения
Вы не можете удалять свои сообщения
Вы не можете голосовать в опросах
Вы не можете прикреплять файлы к сообщениям
Вы не можете скачивать файлы