Ивановский Торрент трекер
Яндекс.Погода
 

[Цитировать]
HUNTER

Formula E Championships. 2014-2015. Этап 7. Монте-Карло (Монако)
Вид спорта: Автогонки
Дата/Год выпуска: 09.05.15
Язык комментариев: английский
Автор записи: SashaR.
Качество: DVB-S2 Remux
Формат видео: TS
Видео: AVC 1920x1080, 16:9, 9 786 Kbps, 25 fps
Аудио: AC-3, 224 Kbps, 48.0 kHz, 2 channels

Media Info

G:\Раздачи\Formula E Championships. 2014-2015. Этап 7. Монте-Карло (Монако).ts
General #6
ID : 6 (0x6)
Complete name : G:\Раздачи\Formula E Championships. 2014-2015. Этап 7. Монте-Карло (Монако).ts
Format : MPEG-TS
File size : 5.48 GiB
Duration : 1h 13mn
Overall bit rate mode : Variable
Overall bit rate : 10.6 Mbps
Video #767
ID : 767 (0x2FF)
Menu ID : 129 (0x81)
Format : AVC
Format/Info : Advanced Video Codec
Format profile : High@L4.0
Format settings, CABAC : Yes
Format settings, ReFrames : 3 frames
Codec ID : 27
Duration : 1h 13mn
Bit rate : 9 870 Kbps
Width : 1 920 pixels
Height : 1 080 pixels
Display aspect ratio : 16:9
Frame rate : 25.000 fps
Standard : Component
Color space : YUV
Chroma subsampling : 4:2:0
Bit depth : 8 bits
Scan type : Interlaced
Scan order : Top Field First
Bits/(Pixel*Frame) : 0.190
Stream size : 5.09 GiB (93%)
Color primaries : BT.709
Transfer characteristics : BT.709
Matrix coefficients : BT.709
Audio #772
ID : 772 (0x304)
Menu ID : 129 (0x81)
Format : AC-3
Format/Info : Audio Coding 3
Mode extension : CM (complete main)
Format settings, Endianness : Big
Codec ID : 6
Duration : 1h 13mn
Bit rate mode : Constant
Bit rate : 224 Kbps
Channel count : 2 channels
Channel positions : Front: L R
Sampling rate : 48.0 KHz
Bit depth : 16 bits
Compression mode : Lossy
Delay relative to video : 130ms
Stream size : 118 MiB (2%)
Language : English
Language, more info : Clean effects

Продолжительность

01:13:48

Скриншоты



Показать сообщения:    

Текущее время: 17-Дек 23:35

Часовой пояс: UTC ± 0


Вы не можете начинать темы
Вы не можете отвечать на сообщения
Вы не можете редактировать свои сообщения
Вы не можете удалять свои сообщения
Вы не можете голосовать в опросах
Вы не можете прикреплять файлы к сообщениям
Вы не можете скачивать файлы

!ВНИМАНИЕ!
Сайт не предоставляет электронные версии произведений, а занимается лишь коллекционированием и каталогизацией ссылок, присылаемых и публикуемых на форуме нашими читателями. Если вы являетесь правообладателем какого-либо представленного материала и не желаете, чтобы ссылка на него находилась в нашем каталоге, свяжитесь с нами, и мы незамедлительно удалим ее. Файлы для обмена на трекере предоставлены пользователями сайта, и администрация не несет ответственности за их содержание. Просьба не заливать файлы, защищенные авторскими правами, а также файлы нелегального содержания!