Важное объявление!
У Нас Все раздачи мультитрекерные, при нуле пиров в релизах, можете смело вставать на закачку!
 
Автор Сообщение

HUNTER

Стаж:
4 года 7 месяцев
Сообщений:
61639

Репутация: 101

[+] [-]
Вне форума [Профиль] [ЛС]

Formula E. 2014. Этап 03. Uruguay. Punta del Este ePrix. Гонка. Sky Sport 1 HD
Вид спорта: Автогонки
Дата/Год выпуска: 15.12.14
Язык комментариев: немецкий
Автор записи: SashaR.
Качество: DVB-S2 Remux
Формат видео: TS
Видео: 1920x1080, 16:9, 13.8 Mbps, 25 fps
Аудио: AC-3, 224 Kbps, 48.0 kHz, 2 channels

Media Info

G:\Раздачи\Formula E. 2014. Этап 03. Uruguay. Punta del Este ePrix. Гонка. Sky Sport 1 HD.ts
General #6
ID : 6 (0x6)
Complete name : G:\Раздачи\Formula E. 2014. Этап 03. Uruguay. Punta del Este ePrix. Гонка. Sky Sport 1 HD.ts
Format : MPEG-TS
File size : 9.33 GiB
Duration : 1h 28mn
Overall bit rate mode : Variable
Overall bit rate : 15.1 Mbps
Video #767
ID : 767 (0x2FF)
Menu ID : 129 (0x81)
Format : AVC
Format/Info : Advanced Video Codec
Format profile : High@L4.0
Format settings, CABAC : Yes
Format settings, ReFrames : 3 frames
Format settings, GOP : M=4, N=32
Codec ID : 27
Duration : 1h 28mn
Bit rate : 13.8 Mbps
Width : 1 920 pixels
Height : 1 080 pixels
Display aspect ratio : 16:9
Frame rate : 25.000 fps
Standard : Component
Color space : YUV
Chroma subsampling : 4:2:0
Bit depth : 8 bits
Scan type : Interlaced
Scan order : Top Field First
Bits/(Pixel*Frame) : 0.266
Stream size : 8.51 GiB (91%)
Color primaries : BT.709
Transfer characteristics : BT.709
Matrix coefficients : BT.709
Audio #770
ID : 770 (0x302)
Menu ID : 129 (0x81)
Format : AC-3
Format/Info : Audio Coding 3
Mode extension : CM (complete main)
Format settings, Endianness : Big
Codec ID : 6
Duration : 1h 28mn
Bit rate mode : Constant
Bit rate : 192 Kbps
Channel count : 2 channels
Channel positions : Front: L R
Sampling rate : 48.0 KHz
Bit depth : 16 bits
Compression mode : Lossy
Delay relative to video : 85ms
Stream size : 122 MiB (1%)
Language : German
Language, more info : Clean effects
Audio #771
ID : 771 (0x303)
Menu ID : 129 (0x81)
Format : AC-3
Format/Info : Audio Coding 3
Mode extension : CM (complete main)
Format settings, Endianness : Big
Codec ID : 6
Duration : 160ms
Bit rate mode : Constant
Bit rate : 384 Kbps
Channel count : 6 channels
Channel positions : Front: L C R, Side: L R, LFE
Sampling rate : 48.0 KHz
Bit depth : 16 bits
Compression mode : Lossy
Stream size : 7.50 KiB (0%)
Language : German
Language, more info : Clean effects

Продолжительность

01:28:29

Скриншоты


_________________
Показать сообщения:    

Текущее время: Сегодня 18:43

Часовой пояс: GMT



Вы не можете начинать темы
Вы не можете отвечать на сообщения
Вы не можете редактировать свои сообщения
Вы не можете удалять свои сообщения
Вы не можете голосовать в опросах
Вы не можете прикреплять файлы к сообщениям
Вы не можете скачивать файлы
Наши партнеры: интернет магазин Ивановского трикотажа textilla.ru