Важное объявление!
У Нас Все раздачи мультитрекерные, при нуле пиров в релизах, можете смело вставать на закачку!
 
Автор Сообщение

HUNTER

Стаж:
4 года 6 месяцев
Сообщений:
60994

Репутация: 101

[+] [-]
Вне форума [Профиль] [ЛС]

Formula E.2014-2015.Этап 02.Malaysia.Гонка.IPTVRip.Belarus5 [22.11.14, Формула Е, RUS/INT]
Вид спорта: Formula E (Open-wheel)
Дата/Год выпуска: 22.11.2014
Язык комментариев: Русский, Интершум
Описание: Формула Е 2014-2015, этап 02, Путраджая (Малайзия).
Автор рипа/записи: olvlas, sevaBLR
Доп. информация: Исходник записан с плохим качеством (но смотрибельно) в MPEG-TS формате: Видео интерлейсное (гребенка), звук моно, при перемотке картинка чуть дергается и "замирает" на 1 секунду, есть реклама 2 минуты.
Благодаря работе olvlas удалось исправить видео на Progressive (деинтерлейс), звук стерео, перемотка работает нормально, вырезана реклама.
Выкладываю исправленный вариант Олега MP4 и исходник MPEG-TS (кому необходим).
Если вас сильно раздражает интерлейс, то качайте только MP4. Если есть необходимость в исходнике, то качайте MPEG-TS.
Формат видео: MP4, MPEG-TS
Видео: MP4 704х400 (16:9), 25.000 fps, 1 420 Kbps, 0.202 bits/pix
MPEG-TS 720х576 (4:3), 25.000 fps, 2 535 Kbps, 0.244 bits/pix
Аудио: AAC 48.0 KHz, 2 channels, 128 Kbps; MPEG Audio

Продолжительность

MP4 - 01:08:29
MPEG-TS - 01:09:21

Скриншоты

MP4



MPEG-TS




MP4 Media File Info

Format : MPEG-4
Format profile : Base Media
Codec ID : isom
File size : 824 MiB
Duration : 1h 8mn
Overall bit rate mode : Variable
Overall bit rate : 1 681 Kbps
Encoded date : UTC 2014-11-29 12:07:14
Tagged date : UTC 2014-11-29 12:07:14
Writing application : My MP4Box GUI 0.6.0.6
Video
ID : 1
Format : AVC
Format/Info : Advanced Video Codec
Format profile : High@L4.1
Format settings, CABAC : Yes
Format settings, ReFrames : 4 frames
Codec ID : avc1
Codec ID/Info : Advanced Video Coding
Duration : 1h 8mn
Bit rate mode : Variable
Bit rate : 1 420 Kbps
Maximum bit rate : 40.0 Mbps
Width : 704 pixels
Height : 400 pixels
Display aspect ratio : 16:9
Frame rate mode : Constant
Frame rate : 25.000 fps
Color space : YUV
Chroma subsampling : 4:2:0
Bit depth : 8 bits
Scan type : Progressive
Bits/(Pixel*Frame) : 0.202
Stream size : 696 MiB (84%)
Writing library : x264 core 138 r2358 9e941d1
Encoding settings : cabac=1 / ref=3 / deblock=1:0:0 / analyse=0x3:0x113 / me=umh / subme=7 / psy=1 / psy_rd=1.00:0.00 / mixed_ref=1 / me_range=24 / chroma_me=1 / trellis=1 / 8x8dct=1 / cqm=0 / deadzone=21,11 / fast_pskip=1 / chroma_qp_offset=-2 / threads=12 / lookahead_threads=2 / sliced_threads=0 / nr=0 / decimate=1 / interlaced=0 / bluray_compat=0 / constrained_intra=0 / bframes=3 / b_pyramid=2 / b_adapt=1 / b_bias=0 / direct=1 / weightb=1 / open_gop=0 / weightp=2 / keyint=100 / keyint_min=10 / scenecut=40 / intra_refresh=0 / rc_lookahead=40 / rc=crf / mbtree=1 / crf=21.0 / qcomp=0.60 / qpmin=0 / qpmax=69 / qpstep=4 / vbv_maxrate=20000 / vbv_bufsize=25000 / crf_max=0.0 / nal_hrd=none / ip_ratio=1.40 / aq=1:1.0
Encoded date : UTC 2014-11-29 12:07:14
Tagged date : UTC 2014-11-29 12:07:24
Audio #1
ID : 2
Format : AAC
Format/Info : Advanced Audio Codec
Format profile : LC
Codec ID : 40
Duration : 1h 8mn
Bit rate mode : Variable
Bit rate : 128 Kbps
Maximum bit rate : 143 Kbps
Channel(s) : 2 channels
Channel positions : Front: L R
Sampling rate : 48.0 KHz
Compression mode : Lossy
Stream size : 62.7 MiB (8%)
Language : Russian
Encoded date : UTC 2014-11-29 12:07:23
Tagged date : UTC 2014-11-29 12:07:24
Audio #2
ID : 3
Format : AAC
Format/Info : Advanced Audio Codec
Format profile : LC
Codec ID : 40
Duration : 1h 8mn
Bit rate mode : Variable
Bit rate : 128 Kbps
Maximum bit rate : 145 Kbps
Channel(s) : 2 channels
Channel positions : Front: L R
Sampling rate : 48.0 KHz
Compression mode : Lossy
Stream size : 62.6 MiB (8%)
Encoded date : UTC 2014-11-29 12:07:24
Tagged date : UTC 2014-11-29 12:07:24

MPEG-TS Media File Info

Format : MPEG-TS
File size : 1.36 GiB
Duration : 1h 9mn
Overall bit rate mode : Variable
Overall bit rate : 2 803 Kbps
Video
ID : 69 (0x45)
Menu ID : 1 (0x1)
Format : AVC
Format/Info : Advanced Video Codec
Format profile : Main@L3.0
Format settings, CABAC : Yes
Format settings, ReFrames : 4 frames
Format settings, GOP : M=3, N=24
Codec ID : 27
Duration : 1h 9mn
Bit rate : 2 535 Kbps
Width : 720 pixels
Height : 576 pixels
Display aspect ratio : 4:3
Frame rate : 25.000 fps
Standard : PAL
Color space : YUV
Chroma subsampling : 4:2:0
Bit depth : 8 bits
Scan type : Interlaced
Scan order : Top Field First
Bits/(Pixel*Frame) : 0.244
Stream size : 1.23 GiB (90%)
Color primaries : BT.601 PAL
Transfer characteristics : BT.470 System B, BT.470 System G
Matrix coefficients : BT.601
Audio
ID : 68 (0x44)
Menu ID : 1 (0x1)
Format : MPEG Audio
Format version : Version 1
Format profile : Layer 2
Codec ID : 3
Duration : 1h 9mn
Bit rate mode : Constant
Bit rate : 128 Kbps
Channel(s) : 1 channel
Sampling rate : 48.0 KHz
Compression mode : Lossy
Delay relative to video : -324ms
Stream size : 63.5 MiB (5%)
Language : Russian

_________________
Показать сообщения:    

Текущее время: Сегодня 18:32

Часовой пояс: GMT



Вы не можете начинать темы
Вы не можете отвечать на сообщения
Вы не можете редактировать свои сообщения
Вы не можете удалять свои сообщения
Вы не можете голосовать в опросах
Вы не можете прикреплять файлы к сообщениям
Вы не можете скачивать файлы
Наши партнеры: интернет магазин Ивановского трикотажа textilla.ru