Ивановский Торрент трекер
Яндекс.Погода
 

[Quote]
HUNTER

Форма голоса / Eiga Koe no Katachi / A Silent Voice / The Shape of Voice- Продолжительность: 129 мин.
Год выпуска: 2016
Страна: Япония
Тип: Movie
Жанр: повседневность, драма, романтика
Режиссёр: Наоко Ямада
Студия: Kyoto Animation-Описание: Подобно миру взрослых, мир детей не терпит различий, выделяющих кого-то на фоне других, коих принято считать «нормальными». Этот мир жесток, поскольку его обитатели, в отличие от обитателей мира взрослых, еще не успели научиться скрывать мерзкие мысли за напускной улыбкой. Многие вещи им непонятны, более того — неведомы. Дети прямолинейны. И поэтому очень жестоки.
Однако все дети когда-нибудь вырастают. И оглядываясь назад, во времена школьной рутины, некоторым из них становится стыдно за свою юность.
Сложно представить, сколько лет должно пройти, пока до примерного задиры и разгильдяя дойдет, каким глупцом он был, когда веселья ради издевался над инвалидом. Кто-то об этом даже не вспомнит. А кто-то вроде Сёи возненавидит себя крепкой ненавистью. В младшей школе он умудрился превратить жизнь одноклассницы по имени Сёко в ад. Только потому, что та была глухая, не как все. И теперь, несколько лет спустя, хоть и запоздало, но мальчишка понял: чтобы сказать нечто важное тому, кто не может тебя услышать, вовсе не обязательно использовать голос.-Озвучки: [Семплы]
Многоголосый дубляж от Reanimedia
Исходный 6 канальный дубляж был предоставлен группой FortunaTV.-Информационные ссылки: AniDB || World Art-Качество: BDRip
Рип: [Beatrice-Raws]
Формат видео: MKV
Наличие линковки: нет
Тип релиза: без хардсаба
Видео: MPEG4 (AVC), 10 bit, 1280x692, 23.976 fps, 4 223 Kbps
Аудио: RUS: AAC, 48.0 kHz, 6ch, 320 Kbps (в составе контейнера)
Аудио: JAP: FLAC, 48.0 kHz, 2ch, 495 Kbps
Субтитры: RUS 1-2: ASS (в составе контейнера)-#1 Субтитры: drnndy [полные]
#2 Субтитры: Izakaya [надписи]-

Актёры озвучки

Reanimedia
Юрий Романов, Мария Щербакова, Анна Балицкая, Светлана Поваляева, Елена Симанович, Марина Осенко (Юрьева), Лилия Юникова, Михаил Каданин, Анастасия Климушкина, Олег Бондарь, Михаил Глушенков, Екатерина Астрединова, Артём Фильченко, Александр Фильченко, Мария Бондаренко, Милена Хорошко, Роман Слатвинский
Роман Головенько, Евгения Делигодина, Роза Бочарова, Александра Петренко, Олег Шевченко, Алина Бочарова

Команда переводчиков

Izakaya (переводчики: Onami, Nyashl, редактор, оформление: nippa, QC: Ryuji) Надписи
drnndy

Скриншоты

MediaInfo

Общее
Уникальный идентификатор : 282125461152316497265089008810817657518 (0xD43F632ABA6A92BF1ABBE9FBEDCE9AAE)
Полное имя : E:\Раздачи\[Beatrice-Raws] Eiga Koe no Katachi [BDRip 692p x264 FLAC]\[Beatrice-Raws] Eiga Koe no Katachi [BDRip 692p x264 FLAC].mkv
Формат : Matroska
Версия формата : Version 4
Размер файла : 4,59 Гбайт
Продолжительность : 2 ч. 10 м.
Режим общего битрейта : Переменный
Общий поток : 5 056 Кбит/сек
Дата кодирования : UTC 2020-06-29 19:01:34
Программа кодирования : mkvmerge v48.0.0 ('Fortress Around Your Heart') 64-bit
Библиотека кодирования : libebml v1.4.0 + libmatroska v1.6.0
Attachments : 7fonts.ru_Birdcherry.ttf / 4191.ttf / 9143.otf / 10369.ttf / a_FuturicaMedium.ttf / arial.ttf / BadScript.ttf / Bell Gothic Std Black Regular.otf / BKANT.TTF / Bonzai.ttf / BOOKOS.TTF / Bricks.otf / calibri.ttf / candara.ttf / Comfortaa-Regular.ttf / comic.ttf / corbel.ttf / Eskal.ttf / frizquadratactt.ttf / futurafuturislightc.otf / futuralightc.otf / Globus.ttf / gungsuh.ttc / Kabarett_Simp.ttf / LC Chalk (Regular).ttf / LEngineer-Regular.otf / Malahit.ttf / MENUET S.TTF / note.ttf / ofont.ru_BrushType.ttf / ofont.ru_PresentScript.ttf / OpenSans-Semibold.ttf / PFKidsPro-GradeOne.ttf / segoepr.ttf / segoeui.ttf / segoeuisl.ttf / tahoma.ttf / times.ttf / trebuc.ttf
Видео
Идентификатор : 1
Формат : AVC
Формат/Информация : Advanced Video Codec
Профиль формата : High [email protected]
Настройки формата : CABAC / 9 Ref Frames
Параметр CABAC формата : Да
Параметр RefFrames формата : 9 кадров
Идентификатор кодека : V_MPEG4/ISO/AVC
Продолжительность : 2 ч. 9 м.
Битрейт : 4 223 Кбит/сек
Ширина : 1 280 пикселей
Высота : 692 пикселя
Соотношение сторон : 1,85:1
Режим частоты кадров : Постоянный
Частота кадров : 23,976 (24000/1001) кадра/сек
Цветовое пространство : YUV
Субдискретизация насыщенности : 4:2:0
Битовая глубина : 10 бит
Тип развёртки : Прогрессивная
Бит/(Пиксели*Кадры) : 0.199
Размер потока : 3,83 Гбайт (83%)
Библиотека кодирования : x264 core 148 r2597M e86f3a1 (DJATOM's build)
Настройки программы : cabac=1 / ref=9 / deblock=1:1:-1 / analyse=0x3:0x113 / me=umh / subme=9 / psy=1 / fade_compensate=0.00 / psy_rd=1.00:0.00 / mixed_ref=1 / me_range=32 / chroma_me=1 / trellis=2 / 8x8dct=1 / cqm=0 / deadzone=21,11 / fast_pskip=1 / chroma_qp_offset=-2 / threads=22 / lookahead_threads=5 / sliced_threads=0 / nr=0 / decimate=1 / interlaced=0 / bluray_compat=0 / constrained_intra=0 / bframes=11 / b_pyramid=2 / b_adapt=2 / b_bias=0 / direct=1 / weightb=1 / open_gop=0 / weightp=2 / keyint=240 / keyint_min=23 / scenecut=40 / intra_refresh=0 / rc=crf / mbtree=0 / crf=14.0000 / qcomp=0.72 / qpmin=0 / qpmax=81 / qpstep=4 / ip_ratio=1.40 / pb_ratio=1.30 / aq=1:0.85
Язык : Japanese
Default : Да
Forced : Нет
Цветовой диапазон : Limited
Основные цвета : BT.709
Характеристики трансфера : BT.709
Коэффициенты матрицы : BT.709
Аудио #1
Идентификатор : 2
Формат : AAC LC
Формат/Информация : Advanced Audio Codec Low Complexity
Идентификатор кодека : A_AAC-2
Продолжительность : 2 ч. 9 м.
Битрейт : 320 Кбит/сек
Каналы : 6 каналов
Channel layout : C L R Ls Rs LFE
Частота : 48,0 КГц
Частота кадров : 46,875 кадров/сек (1024 SPF)
Метод сжатия : С потерями
Задержка видео : 20 мс.
Размер потока : 297 Мбайт (6%)
Заголовок : Reanimedia
Язык : Russian
Default : Да
Forced : Нет
Аудио #2
Идентификатор : 3
Формат : FLAC
Формат/Информация : Free Lossless Audio Codec
Идентификатор кодека : A_FLAC
Продолжительность : 2 ч. 10 м.
Вид битрейта : Переменный
Битрейт : 495 Кбит/сек
Каналы : 2 канала
Channel layout : L R
Частота : 48,0 КГц
Частота кадров : 11,719 кадров/сек (4096 SPF)
Битовая глубина : 16 бит
Метод сжатия : Без потерь
Размер потока : 461 Мбайт (10%)
Библиотека кодирования : libFLAC 1.3.2 (UTC 2017-01-01)
Язык : Japanese
Default : Нет
Forced : Нет
Текст #1
Идентификатор : 4
Формат : ASS
Идентификатор кодека : S_TEXT/ASS
Идентификатор кодека/Информация : Advanced Sub Station Alpha
Продолжительность : 2 ч. 8 м.
Битрейт : 159 бит/сек
Count of elements : 1288
Метод сжатия : Без потерь
Размер потока : 150 Кбайт (0%)
Заголовок : Надписи
Язык : Russian
Default : Да
Forced : Нет
Текст #2
Идентификатор : 5
Формат : ASS
Идентификатор кодека : S_TEXT/ASS
Идентификатор кодека/Информация : Advanced Sub Station Alpha
Продолжительность : 2 ч. 3 м.
Битрейт : 113 бит/сек
Count of elements : 1762
Метод сжатия : Без потерь
Размер потока : 103 Кбайт (0%)
Заголовок : Полные
Язык : Russian
Default : Нет
Forced : Нет
Меню
00:00:00.000 : en:Beginning
00:13:10.080 : en:Ballad of the monster
00:22:55.374 : en:Reunion
00:34:50.338 : en:Reason for the meeting
00:44:34.171 : en:Little sister
00:53:08.143 : en:Sahara and Ueno
01:03:58.709 : en:Ponytail
01:15:37.282 : en:Self-hatred
01:30:03.189 : en:What should I do?
01:44:33.600 : en:Don't cry, Nishimiya
01:56:25.812 : en:The shape of voice
02:05:56.048 : en:Ending


Display posts:    

Current time is: 05-Jul 12:21

All times are UTC ± 0


You cannot post new topics in this forum
You cannot reply to topics in this forum
You cannot edit your posts in this forum
You cannot delete your posts in this forum
You cannot vote in polls in this forum
You cannot attach files in this forum
You cannot download files in this forum

!ATTENTION!
The site does not give electronic versions of products, and is engaged only in a collecting and cataloguing of the references sent and published at a forum by our readers. If you are the legal owner of any submitted material and do not wish that the reference to it was in our catalogue, contact us and we shall immediately remove her. Files for an exchange on tracker are given by users of a site, and the administration does not bear the responsibility for their maintenance. The request to not fill in the files protected by copyrights, and also files of the illegal maintenance!