Ивановский Торрент трекер
Яндекс.Погода
 

[Quote]
HUNTER

Фимпен / Fimpen Страна: Швеция
Студия: (Bo Widerberg Film)
Жанр: семейный, спорт
Год выпуска: 1974
Продолжительность: 01:23:35
Перевод: Авторский (одноголосый закадровый) (Сергей Кузнецов)
Субтитры: английские , шведские
Оригинальная аудиодорожка: шведский
Режиссер: Бу Видерберг / Bo Widerberg
В ролях: Йохан Бергман / Johan Bergman, Моника Зеттерлунд / Monica Zetterlund, Magnus Härenstam, Эрнст-Хуго Ярегор / Ernst-Hugo Järegård, Carl Billquist.
Описание: Шестилетний Йохан, по прозвищу Фимпен очень любит футбол. Однажды его заметили и пройдет немного времени, как он будет играть в составе национальной команды и станет кумиром болельщиков. Но это трудно совмещать с учебой в школе…
Доп. информация: СБОРКА Urasik
Релиз:


Тип релиза: DVD9 (Custom)
Контейнер: DVD-Video
Видео: PAL 16:9 (720x576)
Аудио: AC3, 2/0 (L,R) ch, 192 kbps, Delay 0 mSec
Аудио 2: AC3, 2/0 (L,R) ch, 192 kbps, Delay 0 mSec
Аудио 3: AC3, 3/2 (L,C,R,SL,SR)+LFE ch, 448 kbps, Delay 0 mSec

СОФТ

PGCDemux извлечение
IfoEdit сборка
VobBlanker финальная сборка

MediaInfo

Общее
Полное имя : M:\МОИ ВИДЕОЗАПИСИ\DVD ОРИГИНЫ ДЛЯ ПЕРЕВОДА\Фимпен Fimpen (1974) Швеция DVD - 5\Fimpen 1974 RUS\VIDEO_TS\VTS_04_2.VOB
Формат : MPEG-PS
Размер файла : 1024 Мбайт
Продолжительность : 22 м.
Режим общего битрейта : Переменный
Общий поток : 6462 Кбит/сек
Видео
Идентификатор : 224 (0xE0)
Формат : MPEG Video
Версия формата : Version 2
Профиль формата : [email protected]
Параметр BVOP формата : Да
Параметр матрицы формата : Выборочная
Параметр GOP формата : M=3, N=15
Структура изображения : Frame
Продолжительность : 22 м.
Вид битрейта : Переменный
Битрейт : 5501 Кбит/сек
Максимальный битрейт : 8000 Кбит/сек
Ширина : 720 пикселей
Высота : 576 пикселей
Соотношение сторон : 16:9
Частота кадров : 25,000 кадров/сек
Стандарт вещания : PAL
Цветовое пространство : YUV
Субдискретизация насыщенности : 4:2:0
Битовая глубина : 8 бит
Тип развёртки : Чересстрочная
Порядок развёртки : Верхнее поле первое
Метод сжатия : С потерями
Бит/(Пиксели*Кадры) : 0.531
Временной код первого кадра : 00:22:52:20
Оригинал временного кода : Group of pictures header
GOP, открыто/закрыто : Закрыто
Размер потока : 872 Мбайт (85%)
Аудио #1
Идентификатор : 189 (0xBD)-128 (0x80)
Формат : AC-3
Формат/Информация : Audio Coding 3
Расширение режима : CM (complete main)
Параметр Endianness формата : Big
Режим смешивания : DVD-Video
Продолжительность : 22 м.
Вид битрейта : Постоянный
Битрейт : 192 Кбит/сек
Каналы : 2 канала
Расположение каналов : Front: L R
Частота : 48,0 КГц
Частота кадров : 31,250 кадров/сек (1536 spf)
Метод сжатия : С потерями
Задержка видео : -128 мс.
Размер потока : 30,4 Мбайт (3%)
Аудио #2
Идентификатор : 189 (0xBD)-129 (0x81)
Формат : AC-3
Формат/Информация : Audio Coding 3
Расширение режима : CM (complete main)
Параметр Endianness формата : Big
Режим смешивания : DVD-Video
Продолжительность : 22 м.
Вид битрейта : Постоянный
Битрейт : 192 Кбит/сек
Каналы : 2 канала
Расположение каналов : Front: L R
Частота : 48,0 КГц
Частота кадров : 31,250 кадров/сек (1536 spf)
Метод сжатия : С потерями
Задержка видео : -128 мс.
Размер потока : 30,4 Мбайт (3%)
Аудио #3
Идентификатор : 189 (0xBD)-130 (0x82)
Формат : AC-3
Формат/Информация : Audio Coding 3
Расширение режима : CM (complete main)
Параметр Endianness формата : Big
Режим смешивания : DVD-Video
Продолжительность : 22 м.
Вид битрейта : Постоянный
Битрейт : 448 Кбит/сек
Каналы : 6 каналов
Расположение каналов : Front: L C R, Side: L R, LFE
Частота : 48,0 КГц
Частота кадров : 31,250 кадров/сек (1536 spf)
Метод сжатия : С потерями
Задержка видео : -192 мс.
Размер потока : 71,0 Мбайт (7%)
Текст #1
Идентификатор : 189 (0xBD)-32 (0x20)
Формат : RLE
Формат/Информация : Run-length encoding
Режим смешивания : DVD-Video
Задержка видео : 720 мс.
Текст #2
Идентификатор : 189 (0xBD)-33 (0x21)
Формат : RLE
Формат/Информация : Run-length encoding
Режим смешивания : DVD-Video
Задержка видео : 720 мс.
Меню

Скриншоты меню

Скриншоты

DVDINFO

Title: Fimpen 1974 RUS
Size: 7.54 Gb ( 7 904 776,00 KBytes ) - DVD-9
Enabled regions: 1, 2, 3, 4, 5, 6, 7, 8
VTS_01 :
Play Length: 00:00:16
Video: PAL 16:9 (720x576) VBR, Auto Letterboxed
Audio:
Svenska, AC3, 2/0 (L,R) ch, 448 kbps, Delay 0 mSec
VTS_02 :
Play Length: 00:00:18
Video: PAL 16:9 (720x576) VBR, Auto Letterboxed
Audio:
Svenska, AC3, 2/0 (L,R) ch, 128 kbps, Delay 0 mSec
VTS_03 :
Play Length: 00:50:57
Video: PAL 16:9 (720x576) VBR, Auto Letterboxed
Audio:
Svenska, AC3, 2/0 (L,R) ch, 192 kbps, Delay 0 mSec
Subtitles:
Svenska
English
VTS_04 :
Play Length: 01:23:38
Video: PAL 16:9 (720x576) VBR, Auto Letterboxed
Audio:
Russian, AC3, 2/0 (L,R) ch, 192 kbps, Delay 0 mSec
Svenska, AC3, 2/0 (L,R) ch, 192 kbps, Delay 0 mSec
Svenska, AC3, 3/2 (L,C,R,SL,SR)+LFE ch, 448 kbps, Delay 0 mSec
Subtitles:
Svenska
English
VTS_05 :
Play Length: 00:01:31
Video: PAL 4:3 (720x576) VBR
Audio:
Svenska, AC3, 2/0 (L,R) ch, 192 kbps, Delay 0 mSec
VTS_06 :
Play Length: 00:05:30
Video: PAL 4:3 (720x576) VBR
Audio:
English, AC3, 2/0 (L,R) ch, 192 kbps, Delay 0 mSec
Subtitles:
Svenska
English
VTS_07 :
Play Length: 00:36:14
Video: PAL 4:3 (720x576) VBR
Audio:
Svenska, AC3, 2/0 (L,R) ch, 192 kbps, Delay 0 mSec
Subtitles:
Svenska
English


Display posts:    

Current time is: 07-Jul 05:31

All times are UTC ± 0


You cannot post new topics in this forum
You cannot reply to topics in this forum
You cannot edit your posts in this forum
You cannot delete your posts in this forum
You cannot vote in polls in this forum
You cannot attach files in this forum
You cannot download files in this forum

!ATTENTION!
The site does not give electronic versions of products, and is engaged only in a collecting and cataloguing of the references sent and published at a forum by our readers. If you are the legal owner of any submitted material and do not wish that the reference to it was in our catalogue, contact us and we shall immediately remove her. Files for an exchange on tracker are given by users of a site, and the administration does not bear the responsibility for their maintenance. The request to not fill in the files protected by copyrights, and also files of the illegal maintenance!