Важное объявление!
У Нас Все раздачи мультитрекерные, при нуле пиров в релизах, можете смело вставать на закачку!
 
Автор Сообщение

HUNTER

Стаж:
4 года 4 месяца
Сообщений:
56798

Репутация: 101

[+] [-]
Вне форума [Профиль] [ЛС]

FiA World Rallycross Championship 2014 Этап 8 Франция
Вид спорта: Автогонки
Дата/Год выпуска: 07.09.2014
Язык комментариев: английский
Автор записи: SashaR.
Качество: DVB-S2 Remux
Формат видео: TS
Видео: AVC, 1920x1080, 16:9, 8 537 Kbps, 25 fps
Аудио: MP2, 160/448 Kbps, 48.0 kHz, 2 channels

Media Info

G:\Раздачи\FiA World Rallycross Championship 2014. Этап 8. Франция.ts
General #11
ID : 11 (0xB)
Complete name : G:\Раздачи\FiA World Rallycross Championship 2014. Этап 8. Франция.ts
Format : MPEG-TS
File size : 3.11 GiB
Duration : 47mn 28s
Overall bit rate mode : Variable
Overall bit rate : 9 389 Kbps
Video #1279
ID : 1279 (0x4FF)
Menu ID : 122 (0x7A)
Format : AVC
Format/Info : Advanced Video Codec
Format profile : High@L4.0
Format settings, CABAC : Yes
Format settings, ReFrames : 3 frames
Codec ID : 27
Duration : 47mn 28s
Bit rate : 8 537 Kbps
Width : 1 920 pixels
Height : 1 080 pixels
Display aspect ratio : 16:9
Frame rate : 25.000 fps
Standard : Component
Color space : YUV
Chroma subsampling : 4:2:0
Bit depth : 8 bits
Scan type : Interlaced
Scan order : Top Field First
Bits/(Pixel*Frame) : 0.165
Stream size : 2.83 GiB (91%)
Color primaries : BT.709
Transfer characteristics : BT.709
Matrix coefficients : BT.709
Audio #1283
ID : 1283 (0x503)
Menu ID : 122 (0x7A)
Format : AC-3
Format/Info : Audio Coding 3
Mode extension : CM (complete main)
Format settings, Endianness : Big
Codec ID : 6
Duration : 47mn 28s
Bit rate mode : Constant
Bit rate : 384 Kbps
Channel count : 2 channels
Channel positions : Front: L R
Sampling rate : 48.0 KHz
Bit depth : 16 bits
Compression mode : Lossy
Delay relative to video : 148ms
Stream size : 130 MiB (4%)
Language : German
Language, more info : Clean effects

Продолжительность

00:47:28

Скриншоты


_________________
Показать сообщения:    

Текущее время: Сегодня 01:19

Часовой пояс: GMT



Вы не можете начинать темы
Вы не можете отвечать на сообщения
Вы не можете редактировать свои сообщения
Вы не можете удалять свои сообщения
Вы не можете голосовать в опросах
Вы не можете прикреплять файлы к сообщениям
Вы не можете скачивать файлы