Ивановский Торрент трекер
Яндекс.Погода
 

[Цитировать]
HUNTER

FiA European Rallycross Championship 2013. Этап 9. Германия
Вид спорта: Ралли
Дата/Год выпуска: 2013
Язык комментариев: немецкий
Автор записи: SashaR.
Качество: DVB-S2 Remux
Формат видео: TS
Видео: AVC, 1920x1080, 16:9, 8 108 Kbps, 25 fps
Аудио: AC3, 448 Kbps, 48.0 kHz, 2 channels

Media Info

H:\Раздачи\FiA European Rallycross Championship 2013. Этап 9. Германия (Sport1+ HD).ts
General #6
ID : 6 (0x6)
Complete name : H:\Раздачи\FiA European Rallycross Championship 2013. Этап 9. Германия (Sport1+ HD).ts
Format : MPEG-TS
File size : 3.25 GiB
Duration : 52mn 6s
Overall bit rate mode : Variable
Overall bit rate : 8 937 Kbps
Video #1279
ID : 1279 (0x4FF)
Menu ID : 122 (0x7A)
Format : AVC
Format/Info : Advanced Video Codec
Format profile : High@L4.0
Format settings, CABAC : Yes
Format settings, ReFrames : 3 frames
Codec ID : 27
Duration : 52mn 6s
Bit rate : 8 108 Kbps
Width : 1 920 pixels
Height : 1 080 pixels
Display aspect ratio : 16:9
Frame rate : 25.000 fps
Standard : Component
Color space : YUV
Chroma subsampling : 4:2:0
Bit depth : 8 bits
Scan type : Interlaced
Scan order : Top Field First
Bits/(Pixel*Frame) : 0.156
Stream size : 2.95 GiB (91%)
Color primaries : BT.709
Transfer characteristics : BT.709
Matrix coefficients : BT.709
Audio #1283
ID : 1283 (0x503)
Menu ID : 122 (0x7A)
Format : AC-3
Format/Info : Audio Coding 3
Mode extension : CM (complete main)
Format settings, Endianness : Big
Codec ID : 6
Duration : 52mn 6s
Bit rate mode : Constant
Bit rate : 384 Kbps
Channel count : 6 channels
Channel positions : Front: L C R, Side: L R, LFE
Sampling rate : 48.0 KHz
Bit depth : 16 bits
Compression mode : Lossy
Delay relative to video : 148ms
Stream size : 143 MiB (4%)
Language : German
Language, more info : Clean effects

Продолжительность

00:52:05

Скриншоты

Показать сообщения:    

Текущее время: 21-Сен 07:43

Часовой пояс: UTC - 1


Вы не можете начинать темы
Вы не можете отвечать на сообщения
Вы не можете редактировать свои сообщения
Вы не можете удалять свои сообщения
Вы не можете голосовать в опросах
Вы не можете прикреплять файлы к сообщениям
Вы не можете скачивать файлы

!ВНИМАНИЕ!
Сайт не предоставляет электронные версии произведений, а занимается лишь коллекционированием и каталогизацией ссылок, присылаемых и публикуемых на форуме нашими читателями. Если вы являетесь правообладателем какого-либо представленного материала и не желаете, чтобы ссылка на него находилась в нашем каталоге, свяжитесь с нами, и мы незамедлительно удалим ее. Файлы для обмена на трекере предоставлены пользователями сайта, и администрация не несет ответственности за их содержание. Просьба не заливать файлы, защищенные авторскими правами, а также файлы нелегального содержания!