Ивановский Торрент трекер
Яндекс.Погода
 

[Quote]
HUNTER

Ферма «Мадбаунд» / Mudbound Страна: США
Жанр: Драма
Год выпуска: 2017
Продолжительность: 02:15:02
Перевод: Субтитры
Субтитры: Русские (Netflix, Focs), Английские (Forced; SDH), Немецкие, Испанские, Французские, Голландские
Оригинальная аудиодорожка: Английская
Режиссер: Ди Риис / Dee Rees
В ролях: Гаррет Хедлунд, Кэри Маллиган, Джейсон Кларк, Роб Морган, Джонатан Бэнкс, Джейсон Митчелл, Мэри Джей Блайдж, Керри Кехилл, Люси Фауст, Келвин Харрисон
Описание: 1946 год. Генри Макаллан перевозит свою семью из Мемфиса на принадлежащую отцу удаленную хлопковую ферму в дельте Миссисипи. Пока Генри занимается физическим трудом на земле, которую любит, его жена Лора, привыкшая к городской жизни, с большими трудностями обживается на новом месте под пристальным взглядом сурового тестя. Скоро к ним присоединяется вернувшийся с войны младший брат Генри Джейми.

Сэмпл
Реклама: Отсутствует
Тип релиза: WEB-DL 1080p
Контейнер: MKV
Видео: AVC, 1920x1080 (16:9), 23.976 fps, 2740 kb/s (0.055 bit/pixel)
Аудио: AC3, 48 KHz, 6 ch, 384 kbps (Оригинал)
Формат субтитров: softsub (SRT)

Доп.информация

Оригинальный нетронутый видеоряд с Netflix.
При появлении лучшего качества 1080p будет произведена замена.

MediaInfo

General
Unique ID : 202158782785562766291071489201801900408 (0x98165D862F80467F8D6B301EA219B178)
Complete name : D:\Mudbound.2017.1080p.NF.WEB-DL.mkv
Format : Matroska
Format version : Version 4 / Version 2
File size : 2.92 GiB
Duration : 2 h 15 min
Overall bit rate mode : Variable
Overall bit rate : 3 099 kb/s
Encoded date : UTC 2018-02-10 20:29:47
Writing application : mkvmerge v9.9.0 ('Pick Up') 32bit
Writing library : libebml v1.3.4 + libmatroska v1.4.5
Video
ID : 1
Format : AVC
Format/Info : Advanced Video Codec
Format profile : [email protected]
Format settings : CABAC / 3 Ref Frames
Format settings, CABAC : Yes
Format settings, RefFrames : 3 frames
Codec ID : V_MPEG4/ISO/AVC
Duration : 2 h 15 min
Bit rate mode : Variable
Bit rate : 2 740 kb/s
Maximum bit rate : 4 110 kb/s
Width : 1 920 pixels
Height : 1 080 pixels
Display aspect ratio : 16:9
Frame rate mode : Constant
Frame rate : 23.976 (24000/1001) FPS
Color space : YUV
Chroma subsampling : 4:2:0
Bit depth : 8 bits
Scan type : Progressive
Bits/(Pixel*Frame) : 0.055
Stream size : 2.56 GiB (88%)
Writing library : x264 core 148
Encoding settings : cabac=1 / ref=3 / deblock=1:0:0 / analyse=0x1:0x111 / me=umh / subme=10 / psy=1 / psy_rd=1.00:0.00 / mixed_ref=1 / me_range=24 / chroma_me=1 / trellis=2 / 8x8dct=0 / cqm=0 / deadzone=21,11 / fast_pskip=1 / chroma_qp_offset=-2 / threads=8 / lookahead_threads=1 / sliced_threads=0 / nr=0 / decimate=1 / interlaced=0 / bluray_compat=0 / stitchable=1 / constrained_intra=0 / bframes=2 / b_pyramid=0 / b_adapt=2 / b_bias=0 / direct=3 / weightb=1 / open_gop=0 / weightp=2 / keyint=48 / keyint_min=25 / scenecut=0 / intra_refresh=0 / rc_lookahead=48 / rc=2pass / mbtree=1 / bitrate=2740 / ratetol=1.0 / qcomp=0.50 / qpmin=6 / qpmax=51 / qpstep=4 / cplxblur=20.0 / qblur=0.5 / vbv_maxrate=4110 / vbv_bufsize=5480 / nal_hrd=vbr / filler=0 / ip_ratio=1.40 / aq=1:1.00
Language : English
Default : Yes
Forced : No
Audio
ID : 2
Format : AC-3
Format/Info : Audio Coding 3
Codec ID : A_AC3
Duration : 2 h 15 min
Bit rate mode : Constant
Bit rate : 384 kb/s
Channel(s) : 6 channels
Channel positions : Front: L C R, Side: L R, LFE
Sampling rate : 48.0 kHz
Frame rate : 31.250 FPS (1536 SPF)
Bit depth : 16 bits
Compression mode : Lossy
Stream size : 371 MiB (12%)
Language : English
Service kind : Complete Main
Default : Yes
Forced : No
Text #1
ID : 3
Format : UTF-8
Codec ID : S_TEXT/UTF8
Codec ID/Info : UTF-8 Plain Text
Duration : 2 h 7 min
Bit rate : 75 b/s
Count of elements : 1424
Stream size : 70.2 KiB (0%)
Title : Netflix
Language : Russian
Default : Yes
Forced : No
Text #2
ID : 4
Format : UTF-8
Codec ID : S_TEXT/UTF8
Codec ID/Info : UTF-8 Plain Text
Duration : 2 h 6 min
Bit rate : 89 b/s
Count of elements : 1433
Stream size : 83.1 KiB (0%)
Title : Focs
Language : Russian
Default : No
Forced : No
Text #3
ID : 5
Format : UTF-8
Codec ID : S_TEXT/UTF8
Codec ID/Info : UTF-8 Plain Text
Duration : 1 s 585 ms
Bit rate : 90 b/s
Count of elements : 1
Stream size : 18.0 Bytes (0%)
Title : Forced
Language : English
Default : No
Forced : No
Text #4
ID : 6
Format : UTF-8
Codec ID : S_TEXT/UTF8
Codec ID/Info : UTF-8 Plain Text
Duration : 2 h 12 min
Bit rate : 62 b/s
Count of elements : 1791
Stream size : 60.2 KiB (0%)
Title : SDH
Language : English
Default : No
Forced : No
Text #5
ID : 7
Format : UTF-8
Codec ID : S_TEXT/UTF8
Codec ID/Info : UTF-8 Plain Text
Duration : 2 h 13 min
Bit rate : 47 b/s
Count of elements : 1374
Stream size : 46.9 KiB (0%)
Language : German
Default : No
Forced : No
Text #6
ID : 8
Format : UTF-8
Codec ID : S_TEXT/UTF8
Codec ID/Info : UTF-8 Plain Text
Duration : 2 h 13 min
Bit rate : 44 b/s
Count of elements : 1431
Stream size : 44.0 KiB (0%)
Language : Spanish
Default : No
Forced : No
Text #7
ID : 9
Format : UTF-8
Codec ID : S_TEXT/UTF8
Codec ID/Info : UTF-8 Plain Text
Duration : 2 h 13 min
Bit rate : 47 b/s
Count of elements : 1389
Stream size : 46.8 KiB (0%)
Language : French
Default : No
Forced : No
Text #8
ID : 10
Format : UTF-8
Codec ID : S_TEXT/UTF8
Codec ID/Info : UTF-8 Plain Text
Duration : 2 h 13 min
Bit rate : 42 b/s
Count of elements : 1225
Stream size : 42.0 KiB (0%)
Language : Dutch
Default : No
Forced : No

Скриншоты



Display posts:    

Current time is: 07-Jul 06:27

All times are UTC ± 0


You cannot post new topics in this forum
You cannot reply to topics in this forum
You cannot edit your posts in this forum
You cannot delete your posts in this forum
You cannot vote in polls in this forum
You cannot attach files in this forum
You cannot download files in this forum

!ATTENTION!
The site does not give electronic versions of products, and is engaged only in a collecting and cataloguing of the references sent and published at a forum by our readers. If you are the legal owner of any submitted material and do not wish that the reference to it was in our catalogue, contact us and we shall immediately remove her. Files for an exchange on tracker are given by users of a site, and the administration does not bear the responsibility for their maintenance. The request to not fill in the files protected by copyrights, and also files of the illegal maintenance!