Важное объявление!
У Нас Все раздачи мультитрекерные, при нуле пиров в релизах, можете смело вставать на закачку!
 
Автор Сообщение

Savaris

Стаж:
5 лет 9 месяцев
Сообщений:
156

Репутация: 40

[+] [-]
Вне форума [Профиль] [ЛС]

-
Год выпуска: 2012
Страна: Япония
Жанр: приключения
Продолжительность: 12 эп. по 24 мин.-Перевод:
  • русские субтитры от GMC & zlobny_sow (полные/вспомогательные)
    переводчик: Crash'n'Burn, оформление: nismo, редакторы: Schum, zlobny_sow
-Режиссер: Мотонага Кэйтаро
Студия: -Описание:
Коко Хекматияр, непредсказуемый оружейный дилер, все так же кочует со своей командой по белу свету. Водоворот судьбы, что крутится вокруг главной героини, затягивает коллег и конкурентов, бандитов и клиентов, старых кровников и агентов ЦРУ. Но пока простые люди пытаются выжить, кинуть ближнего и заработать денег, другие, более серьезные, понимают, что в деяниях группы Хекматияр проглядывает единый, непонятный, но, тем не менее, грандиозный замысел. Вот только половина провидцев стремится прикончить Коко в профилактических целях, а другая желает посмотреть, чем дело кончится!
Десятки запусков ракет на суше и на море, новая, еще невиданная техника… Неужели странная Коко и просто безбашенная доктор Минами решили и правда изменить наш безумный мир к лучшему? Каких жертв это потребует, и сможет ли после такого героиня сохранить рядом с собой юного Иону – единственный залог собственной человечности? Мы узнаем ответ в конце сериала - ведь его подскажет сам Мировой Змей!
© Hollow, World Art-Информационные ссылки: AniDB || World Art || MAL-Качество: BDRip
Энкод: Winter - RG Pantheon
Тип видео: без хардсаба
Формат: mkv
Видео: x264 (Hi10p), 1280x720, ~5400 Kbps, 23.976 fps
Аудио JAP: Vorbis, 48000Hz, ~256 Kbps, 2ch
Аудио RUS 1-5: AAC/AC3, 48000Hz, ~192 Kbps, 2ch (внешними файлами)-

Список озвучек в раздаче

  • двухголосая (муж./жен.) от Sad_Kit & Trina_D (Anything-group & AniDUB)
  • двухголосая (муж./жен.) от Jam & Eladiel (Animedia & Anilibria)
  • двухголосая (муж./жен.) от Valkrist & KroshkaRu [1-9] (MCA & SeM)
  • двухголосая (муж./жен.) от MIKS & Мирра (Opendub)
  • двухголосая (муж./жен.) от loster01 & Emeri (LE production)

Список эпизодов

01. The Snake that Admires the Heavens
02. Dance with Undershaft (Phase 1)
03. Dance with Undershaft (Phase 2)
04. Kasper and Jonah
05. Castle of Lies (Phase 1)
06. Castle of Lies (Phase 2)
07. Pazuzu
08. New World (Phase 1)
09. New World (Phase 2)
10. New World (Phase 3)
11. Warmonger
12. Century of Shame

Скриншоты


Подробные тех. данные

Общее
Уникальный идентификатор : 202031060474672723293264348833138831327 (0x97FDC453FB218FB691D6B5987B5B6FDF)
Полное имя : Z:\Anime\720p\Jormungand - Perfect Order [BD] [720p]\[Winter] Jormungand - Perfect Order 01 [BDrip 1280x720 x264 Vorbis].mkv
Формат : Matroska
Версия формата : Version 2
Размер файла : 1,02 Гбайт
Продолжительность : 23 м.
Режим общего битрейта : Переменный
Общий поток : 6176 Кбит/сек
Дата кодирования : UTC 2013-01-02 19:20:32
Программа кодирования : mkvmerge v2.9.8 ('C'est le bon') built on Aug 13 2009 12:49:06
Библиотека кодирования : libebml v0.7.7 + libmatroska v0.8.1
Видео
Идентификатор : 1
Формат : AVC
Формат/Информация : Advanced Video Codec
Профиль формата : High 10@L4.1
Параметр CABAC формата : Да
Параметр ReFrames формата : 9 кадров
Идентификатор кодека : V_MPEG4/ISO/AVC
Продолжительность : 23 м.
Битрейт : 5797 Кбит/сек
Ширина : 1280 пикселей
Высота : 720 пикселей
Соотношение сторон : 16:9
Режим частоты кадров : Постоянный
Частота кадров : 23,976 кадра/сек
Цветовое пространство : YUV
Субдискретизация насыщенности : 4:2:0
Битовая глубина : 10 бит
Тип развёртки : Прогрессивная
Бит/(Пиксели*Кадры) : 0.262
Размер потока : 983 Мбайт (94%)
Библиотека кодирования : x264 core 125 r2200 999b753
Настройки программы : cabac=1 / ref=9 / deblock=1:-2:-2 / analyse=0x3:0x133 / me=umh / subme=9 / psy=1 / psy_rd=0.90:0.00 / mixed_ref=1 / me_range=24 / chroma_me=1 / trellis=2 / 8x8dct=1 / cqm=0 / deadzone=21,11 / fast_pskip=1 / chroma_qp_offset=-2 / threads=6 / lookahead_threads=1 / sliced_threads=0 / nr=0 / decimate=0 / interlaced=0 / bluray_compat=0 / constrained_intra=0 / bframes=8 / b_pyramid=2 / b_adapt=2 / b_bias=0 / direct=1 / weightb=1 / open_gop=0 / weightp=2 / keyint=250 / keyint_min=23 / scenecut=40 / intra_refresh=0 / rc=crf / mbtree=0 / crf=21.0 / qcomp=0.70 / qpmin=9 / qpmax=40 / qpstep=4 / ip_ratio=1.40 / pb_ratio=1.30 / aq=1:0.90
Default : Нет
Forced : Нет
Аудио
Идентификатор : 2
Формат : Vorbis
Параметр Floor формата : 1
Идентификатор кодека : A_VORBIS
Продолжительность : 23 м.
Вид битрейта : Переменный
Битрейт : 256 Кбит/сек
Каналы : 2 канала
Частота : 48,0 КГц
Метод сжатия : С потерями
Размер потока : 43,4 Мбайт (4%)
Библиотека кодирования : libVorbis (Schaufenugget) (20101101 (Schaufenugget))
Язык : Japanese
Default : Да
Forced : Нет

Скачать первый сезон

- -

FAQ по раздаче

  • Выбор видео, перевода, озвучки, а также типа сборки материала осуществляется релизером и не подлежит обсуждению. Если вы считаете, что раздаваемый материал противоречит правилам раздела "Аниме" rutracker.org, сообщите об этом одному из модераторов раздела.
  • В случае появления нового материала или же лучшего по качеству материала релизер оставляет за собой право обновить раздачу. В этом случае вам необходимо ознакомиться с изменениями (добавлениями) и перекачать торрент.
  • Данный релиз предназначен для просмотра на ПК. Воспроизведение на иных проигрывателях не гарантируется. Для просмотра рекомендуется Media Player Classic с установленным пакетом кодеков K-Lite.
  • Данный релиз содержит 10-битное видео (Hi10p). Для корректного воспроизведения обязательно используйте кодеки, поддерживающие 10-битное видео.
    Обсудить частные случаи проблем с воспроизведением и получить дополнительную информацию можно здесь.
  • Данный релиз предназначен для просмотра с внешними субтитрами и внешними звуковыми дорожками.
    • Для просмотра с внешней звуковой дорожкой нужно:
      перекинуть файлы .mka из папки "RUS Sound []" в одну папку с видео и переключить звуковую дорожку в плеере при просмотре. Как это сделать в разных плеерах подробно описано здесь.
    • Для просмотра с субтитрами нужно:
      перекинуть файлы .ass из папки "RUS Subtitles []" в одну папку с видео - плеер подгрузит их автоматически при открытии видео.
  • Если у вас возникли проблемы с просмотром, не связанные с описанным выше, сообщите о них автору раздачи посредством сообщения в теме или ЛС Savaris.
-

_________________

Показать сообщения:    

Текущее время: Сегодня 17:14

Часовой пояс: GMT



Вы не можете начинать темы
Вы не можете отвечать на сообщения
Вы не можете редактировать свои сообщения
Вы не можете удалять свои сообщения
Вы не можете голосовать в опросах
Вы не можете прикреплять файлы к сообщениям
Вы не можете скачивать файлы
Наши партнеры: интернет магазин Ивановского трикотажа textilla.ru