Важное объявление!
У Нас Все раздачи мультитрекерные, при нуле пиров в релизах, можете смело вставать на закачку!
 
Автор Сообщение

HUNTER

Стаж:
4 года 4 месяца
Сообщений:
56842

Репутация: 101

[+] [-]
Вне форума [Профиль] [ЛС]

Ёлки «Новый год атакует!»
Страна: Россия
Жанр: комедия
Год выпуска: 2010
Продолжительность: 01:28:58-Перевод: Оригинал
Cубтитры: нет-Режиссер: Тимур Бекмамбетов, Александр Войтинский, Дмитрий Киселев, Александр Андрющенко, Ярослав Чеважевский, Игнас Йонинас
В ролях: Иван Ургант, Сергей Светлаков, Вера Брежнева, Алина Булынко, Сергей Гармаш, Артур Смольянинов, Екатерина Вилкова, Мария Порошина, Дато Бахтадзе, Александр Головин-Описание: События самой новогодней комедии ЁЛКИ происходят в 11 городах: Калининграде, Казани, Перми, Уфе, Бавлах, Екатеринбурге, Красноярске, Якутске, Новосибирске, Санкт-Петербурге и Москве. Герои фильма - таксист и поп-дива, бизнесмен и актер, сноубордист и лыжник, студент и пенсионерка, пожарный и директриса, вор и милиционер, гастарбайтер и президент России. Все они оказываются в самый канун Нового года в очень непростой ситуации, выйти из которой им поможет только чудо... или Теория шести рукопожатий, согласно которой каждый человек на земле знает другого через шесть знакомых.- -Качество: BDRip 720p
Контейнер: MKV
Видео: H.264, 1280x546, 23,976 fps, 5428 kbps
Аудио: Russian: DTS 5.1, 48 kHz, 1510 kbps avg

MediaInfo

General
Unique ID : 232219635499989083046042810682689444727 (0xAEB3DFFDEE09C7E1AEAF18600523DB77)
Complete name : E:\Yolki.2010.BDRip.720p.mkv
Format : Matroska
File size : 4.31 GiB
Duration : 1h 28mn
Overall bit rate : 6 936 Kbps
Movie name : Ёлки
Encoded date : UTC 2011-12-09 05:51:14
Writing application : mkvmerge v5.1.0 ('And so it goes') built on Nov 28 2011 23:58:28
Writing library : libebml v1.2.3 + libmatroska v1.3.0
Video
ID : 1
Format : AVC
Format/Info : Advanced Video Codec
Format profile : High@L4.1
Format settings, CABAC : Yes
Format settings, ReFrames : 6 frames
Codec ID : V_MPEG4/ISO/AVC
Duration : 1h 28mn
Bit rate : 5 428 Kbps
Width : 1 280 pixels
Height : 546 pixels
Display aspect ratio : 2.35:1
Frame rate : 23.976 fps
Color space : YUV
Chroma subsampling : 4:2:0
Bit depth : 8 bits
Scan type : Progressive
Bits/(Pixel*Frame) : 0.324
Stream size : 3.29 GiB (76%)
Title : Ёлки
Writing library : x264 core 112 r1867 22bfd31
Encoding settings : cabac=1 / ref=6 / deblock=1:-3:-3 / analyse=0x3:0x113 / me=umh / subme=10 / psy=1 / psy_rd=1.00:0.00 / mixed_ref=1 / me_range=64 / chroma_me=1 / trellis=2 / 8x8dct=1 / cqm=0 / deadzone=21,11 / fast_pskip=0 / chroma_qp_offset=-2 / threads=6 / sliced_threads=0 / nr=0 / decimate=1 / interlaced=0 / constrained_intra=0 / bframes=7 / b_pyramid=2 / b_adapt=2 / b_bias=0 / direct=3 / weightb=1 / open_gop=0 / weightp=2 / keyint=250 / keyint_min=23 / scenecut=40 / intra_refresh=0 / rc=2pass / mbtree=0 / bitrate=5428 / ratetol=1.0 / qcomp=0.60 / qpmin=10 / qpmax=51 / qpstep=4 / cplxblur=20.0 / qblur=0.5 / ip_ratio=1.40 / pb_ratio=1.30 / aq=1:0.80
Language : Russian
Audio
ID : 2
Format : DTS
Format/Info : Digital Theater Systems
Codec ID : A_DTS
Duration : 1h 28mn
Bit rate mode : Constant
Bit rate : 1 510 Kbps
Channel(s) : 6 channels
Channel positions : Front: L C R, Side: L R, LFE
Sampling rate : 48.0 KHz
Bit depth : 16 bits
Compression mode : Lossy
Stream size : 961 MiB (22%)
Title : DTS
Language : Russian
Menu
00:00:00.000 : ru:Chapter 01
00:04:07.456 : ru:Chapter 02
00:10:16.115 : ru:Chapter 03
00:16:49.091 : ru:Chapter 04
00:23:20.566 : ru:Chapter 05
00:28:40.510 : ru:Chapter 06
00:35:37.969 : ru:Chapter 07
00:41:07.423 : ru:Chapter 08
00:49:10.948 : ru:Chapter 09
00:54:17.004 : ru:Chapter 10
00:59:15.719 : ru:Chapter 11
01:04:01.504 : ru:Chapter 12
01:09:59.320 : ru:Chapter 13
01:14:18.079 : ru:Chapter 14
01:16:51.440 : ru:Chapter 15
01:22:04.545 : ru:Chapter 16

Скриншоты


_________________
Показать сообщения:    

Текущее время: Сегодня 18:20

Часовой пояс: GMT



Вы не можете начинать темы
Вы не можете отвечать на сообщения
Вы не можете редактировать свои сообщения
Вы не можете удалять свои сообщения
Вы не можете голосовать в опросах
Вы не можете прикреплять файлы к сообщениям
Вы не можете скачивать файлы
Наши партнеры: интернет магазин Ивановского трикотажа textilla.ru