Важное объявление!
У Нас Все раздачи мультитрекерные, при нуле пиров в релизах, можете смело вставать на закачку!
 
Автор Сообщение

HUNTER

Стаж:
4 года 4 месяца
Сообщений:
56755

Репутация: 101

[+] [-]
Вне форума [Профиль] [ЛС]

European Rally Championship (ERC) 2014 / Этап 10 / Rallye International du Valais (Швейцария)
Вид спорта: Автоспорт
Дата/Год выпуска: 2014
Язык комментариев: русский, английский
Автор записи: SashaR.
Качество: DVB-S2 Remux
Формат видео: TS
Видео: AVC, 1920x1080, 16:9, 8 986 Kbps, 25 fps
Аудио: MP2, 192 Kbps, 48.0 kHz, 2 channels
Аудио: MP2, 192 Kbps, 48.0 kHz, 2 channels

Media Info

E:\Раздачи\ERC 2014. Этап 10. Rallye International du Valais (Швейцария). День 3.ts
General #6
ID : 6 (0x6)
Complete name : E:\Раздачи\ERC 2014. Этап 10. Rallye International du Valais (Швейцария). День 3.ts
Format : MPEG-TS
File size : 2.02 GiB
Duration : 29mn 17s
Overall bit rate mode : Variable
Overall bit rate : 9 862 Kbps
Video #324
ID : 324 (0x144)
Menu ID : 12104 (0x2F48)
Format : AVC
Format/Info : Advanced Video Codec
Format profile : High@L4.0
Format settings, CABAC : Yes
Format settings, ReFrames : 4 frames
Codec ID : 27
Duration : 29mn 16s
Bit rate : 8 986 Kbps
Width : 1 920 pixels
Height : 1 080 pixels
Display aspect ratio : 16:9
Frame rate : 25.000 fps
Standard : Component
Color space : YUV
Chroma subsampling : 4:2:0
Bit depth : 8 bits
Scan type : Interlaced
Scan order : Top Field First
Bits/(Pixel*Frame) : 0.173
Stream size : 1.84 GiB (91%)
Color primaries : BT.709
Transfer characteristics : BT.709
Matrix coefficients : BT.709
Audio #404
ID : 404 (0x194)
Menu ID : 12104 (0x2F48)
Format : MPEG Audio
Format version : Version 1
Format profile : Layer 2
Codec ID : 4
Duration : 29mn 16s
Bit rate mode : Constant
Bit rate : 192 Kbps
Channel count : 2 channels
Sampling rate : 48.0 KHz
Compression mode : Lossy
Delay relative to video : 241ms
Stream size : 40.2 MiB (2%)
Language : Russian
Language, more info : Clean effects
Audio #424
ID : 424 (0x1A8)
Menu ID : 12104 (0x2F48)
Format : MPEG Audio
Format version : Version 1
Format profile : Layer 2
Codec ID : 4
Duration : 29mn 16s
Bit rate mode : Constant
Bit rate : 192 Kbps
Channel count : 2 channels
Sampling rate : 48.0 KHz
Compression mode : Lossy
Delay relative to video : 313ms
Stream size : 40.2 MiB (2%)
Language : English
Language, more info : Clean effects

Продолжительность

00:29:17

Скриншоты


_________________
Показать сообщения:    

Текущее время: Сегодня 10:13

Часовой пояс: GMT



Вы не можете начинать темы
Вы не можете отвечать на сообщения
Вы не можете редактировать свои сообщения
Вы не можете удалять свои сообщения
Вы не можете голосовать в опросах
Вы не можете прикреплять файлы к сообщениям
Вы не можете скачивать файлы