European Rally Championship (ERC) 2014 / Обзор сезона [09.12.14, Автоспорт, DVB-S2 Remux, 1080i, RU-EN] :: Ивановский Торрент трекер
Важное объявление!
У Нас Все раздачи мультитрекерные, при нуле пиров в релизах, можете смело вставать на закачку!
Статистика раздачи
Размер:     |    Зарегистрирован:     |    Скачан:     |   
Нет
 
     
 
 
Автор Сообщение

HUNTER

Стаж:
4 года 11 месяцев
Сообщений:
66077

Репутация: 101

[+] [-]
Вне форума [Профиль] [ЛС]

European Rally Championship (ERC) 2014 / Обзор сезона
Вид спорта: Автоспорт
Дата/Год выпуска: 09.12.14
Язык комментариев: русский, английский
Автор записи: SashaR.
Качество: DVB-S2 Remux
Формат видео: TS
Видео: AVC, 1920x1080, 16:9, 8 973 Kbps, 25 fps
Аудио: MP2, 192 Kbps, 48.0 kHz, 2 channels
Аудио: MP2, 192 Kbps, 48.0 kHz, 2 channels

Media Info

G:\Раздачи\European Rally Championship (ERC) 2014. Обзор сезона. SashaR.ts
General #6
ID : 6 (0x6)
Complete name : G:\Раздачи\European Rally Championship (ERC) 2014. Обзор сезона. SashaR.ts
Format : MPEG-TS
File size : 3.60 GiB
Duration : 52mn 17s
Overall bit rate mode : Variable
Overall bit rate : 9 847 Kbps
Video #324
ID : 324 (0x144)
Menu ID : 1 (0x1)
Format : AVC
Format/Info : Advanced Video Codec
Format profile : High@L4.0
Format settings, CABAC : Yes
Format settings, ReFrames : 4 frames
Codec ID : 27
Duration : 52mn 17s
Bit rate : 8 973 Kbps
Width : 1 920 pixels
Height : 1 080 pixels
Display aspect ratio : 16:9
Frame rate : 25.000 fps
Standard : Component
Color space : YUV
Chroma subsampling : 4:2:0
Bit depth : 8 bits
Scan type : Interlaced
Scan order : Top Field First
Bits/(Pixel*Frame) : 0.173
Stream size : 3.28 GiB (91%)
Language : English
Color primaries : BT.709
Transfer characteristics : BT.709
Matrix coefficients : BT.709
Audio #404
ID : 404 (0x194)
Menu ID : 1 (0x1)
Format : MPEG Audio
Format version : Version 1
Format profile : Layer 2
Codec ID : 4
Duration : 52mn 17s
Bit rate mode : Constant
Bit rate : 192 Kbps
Channel count : 2 channels
Sampling rate : 48.0 KHz
Compression mode : Lossy
Delay relative to video : 73ms
Stream size : 71.8 MiB (2%)
Language : German
Audio #424
ID : 424 (0x1A8)
Menu ID : 1 (0x1)
Format : MPEG Audio
Format version : Version 1
Format profile : Layer 2
Codec ID : 4
Duration : 52mn 17s
Bit rate mode : Constant
Bit rate : 192 Kbps
Channel count : 2 channels
Sampling rate : 48.0 KHz
Compression mode : Lossy
Delay relative to video : 49ms
Stream size : 71.8 MiB (2%)
Language : German

Продолжительность

00:52:17

Скриншоты


_________________
Показать сообщения:    

Текущее время: Сегодня 08:58

Часовой пояс: GMT



Вы не можете начинать темы
Вы не можете отвечать на сообщения
Вы не можете редактировать свои сообщения
Вы не можете удалять свои сообщения
Вы не можете голосовать в опросах
Вы не можете прикреплять файлы к сообщениям
Вы не можете скачивать файлы