Ивановский Торрент трекер
Яндекс.Погода
 

[Цитировать]
HUNTER

DJ Deep Space / Look Into The Sun
Жанр: Euro House, Happy Hardcore
Год издания: 1996
Издатель (лейбл): Magic Music
Номер по каталогу: DTM 27505
Аудиокодек: FLAC (*.flac)
Тип рипа: tracks+.cue
Битрейт аудио: lossless
Продолжительность: 21:54
Источник (релизер): what.cd (ernesto7)
Наличие сканов в содержимом раздачи: да
Треклист:
01. DJ Deep Space - Look Into The Sun (Radio Dance Mix) [03:23]
02. DJ Deep Space - Look Into The Sun (Radio Rave Mix) [03:47]
03. DJ Deep Space - Look Into The Sun (Extended Dance Mix) [04:56]
04. DJ Deep Space - Look Into The Sun (Instrumental Version) [04:53]
05. DJ Deep Space - Look Into The Sun (Hardcore Mix) [04:53]

Лог создания рипа

Exact Audio Copy V1.0 beta 3 from 29. August 2011
EAC extraction logfile from 22. April 2012, 18:34
DJ Deep Space / Look Into The Sun
Used drive : ASUS DRW-24B1ST Adapter: 0 ID: 3
Read mode : SecureUtilize accurate stream : YesDefeat audio cache : YesMake use of C2 pointers : No
Read offset correction : 6Overread into Lead-In and Lead-Out : NoFill up missing offset samples with silence : YesDelete leading and trailing silent blocks : NoNull samples used in CRC calculations : YesUsed interface : Native Win32 interface for Win NT & 2000Gap handling : Appended to previous track
Used output format : User Defined EncoderSelected bitrate : 1024 kBit/sQuality : HighAdd ID3 tag : NoCommand line compressor : C:\Program Files (x86)\Exact Audio Copy\Flac\flac.exeAdditional command line options : -6 -V -T "ARTIST=%artist%" -T "TITLE=%title%" -T "ALBUM=%albumtitle%" -T "DATE=%year%" -T "TRACKNUMBER=%tracknr%" -T "GENRE=%genre%" -T "COMMENT=%comment%" %hascover%--picture="%coverfile%"%hascover% %source% -o %dest%
TOC of the extracted CD
Track | Start | Length | Start sector | End sector --------------------------------------------------------- 1 | 0:00.00 | 3:23.28 | 0 | 15252 2 | 3:23.28 | 3:47.37 | 15253 | 32314 3 | 7:10.65 | 4:56.46 | 32315 | 54560 4 | 12:07.36 | 4:53.00 | 54561 | 76535 5 | 17:00.36 | 4:53.61 | 76536 | 98571
Track 1
Filename G:\Torrent\_new\DJ Deep Space - Look Into The Sun (1996) - FLAC\01. DJ Deep Space - Look Into The Sun (Radio Dance Mix).wav
Pre-gap length 0:00:02.00
Peak level 94.9 % Extraction speed 1.7 X Track quality 100.0 % Test CRC ACB2C46D Copy CRC ACB2C46D Track not present in AccurateRip database Copy OK
Track 2
Filename G:\Torrent\_new\DJ Deep Space - Look Into The Sun (1996) - FLAC\02. DJ Deep Space - Look Into The Sun (Radio Rave Mix).wav
Pre-gap length 0:00:01.73
Peak level 94.9 % Extraction speed 1.9 X Track quality 100.0 % Test CRC F20E33D7 Copy CRC F20E33D7 Track not present in AccurateRip database Copy OK
Track 3
Filename G:\Torrent\_new\DJ Deep Space - Look Into The Sun (1996) - FLAC\03. DJ Deep Space - Look Into The Sun (Extended Dance Mix).wav
Pre-gap length 0:00:01.73
Peak level 94.9 % Extraction speed 2.2 X Track quality 100.0 % Test CRC 97B1E95C Copy CRC 97B1E95C Track not present in AccurateRip database Copy OK
Track 4
Filename G:\Torrent\_new\DJ Deep Space - Look Into The Sun (1996) - FLAC\04. DJ Deep Space - Look Into The Sun (Instrumental Version).wav
Pre-gap length 0:00:01.73
Peak level 94.9 % Extraction speed 2.4 X Track quality 100.0 % Test CRC F405D56E Copy CRC F405D56E Track not present in AccurateRip database Copy OK
Track 5
Filename G:\Torrent\_new\DJ Deep Space - Look Into The Sun (1996) - FLAC\05. DJ Deep Space - Look Into The Sun (Hardcore Mix).wav
Pre-gap length 0:00:01.73
Peak level 94.9 % Extraction speed 2.0 X Track quality 99.9 % Test CRC D9F03C40 Copy CRC D9F03C40 Track not present in AccurateRip database Copy OK
None of the tracks are present in the AccurateRip database
No errors occurred
End of status report
==== Log checksum 581645A35EE1BBA52479D30F9FF329BF5174C3061EAC6CAE0B0C257A07C2E037 ====

Содержание индексной карты (.CUE)

REM GENRE RaveREM DATE 1996REM DISCID 29052205REM COMMENT "ExactAudioCopy v1.0b3"PERFORMER "DJ Deep Space "TITLE "Look Into The Sun "FILE "01. DJ Deep Space - Look Into The Sun (Radio Dance Mix).wav" WAVE TRACK 01 AUDIO TITLE "Look Into The Sun (Radio Dance Mix)" PERFORMER "DJ Deep Space " INDEX 01 00:00:00 TRACK 02 AUDIO TITLE "Look Into The Sun (Radio Rave Mix)" PERFORMER "DJ Deep Space " INDEX 00 03:21:30FILE "02. DJ Deep Space - Look Into The Sun (Radio Rave Mix).wav" WAVE INDEX 01 00:00:00 TRACK 03 AUDIO TITLE "Look Into The Sun (Extended Dance Mix)" PERFORMER "DJ Deep Space " INDEX 00 03:45:39FILE "03. DJ Deep Space - Look Into The Sun (Extended Dance Mix).wav" WAVE INDEX 01 00:00:00 TRACK 04 AUDIO TITLE "Look Into The Sun (Instrumental Version)" PERFORMER "DJ Deep Space " INDEX 00 04:54:48FILE "04. DJ Deep Space - Look Into The Sun (Instrumental Version).wav" WAVE INDEX 01 00:00:00 TRACK 05 AUDIO TITLE "Look Into The Sun (Hardcore Mix)" PERFORMER "DJ Deep Space " INDEX 00 04:51:02FILE "05. DJ Deep Space - Look Into The Sun (Hardcore Mix).wav" WAVE INDEX 01 00:00:00



Показать сообщения:    

Текущее время: 13-Дек 13:18

Часовой пояс: UTC ± 0


Вы не можете начинать темы
Вы не можете отвечать на сообщения
Вы не можете редактировать свои сообщения
Вы не можете удалять свои сообщения
Вы не можете голосовать в опросах
Вы не можете прикреплять файлы к сообщениям
Вы не можете скачивать файлы

!ВНИМАНИЕ!
Сайт не предоставляет электронные версии произведений, а занимается лишь коллекционированием и каталогизацией ссылок, присылаемых и публикуемых на форуме нашими читателями. Если вы являетесь правообладателем какого-либо представленного материала и не желаете, чтобы ссылка на него находилась в нашем каталоге, свяжитесь с нами, и мы незамедлительно удалим ее. Файлы для обмена на трекере предоставлены пользователями сайта, и администрация не несет ответственности за их содержание. Просьба не заливать файлы, защищенные авторскими правами, а также файлы нелегального содержания!