Ивановский Торрент трекер
Яндекс.Погода
 

[Цитировать]
HUNTER

Эпидемия / Outbreak Страна: США
Жанр: триллер, драма, фантастика, боевик
Год выпуска: 1995
Продолжительность: 02:03:00Перевод: Профессиональный (дублированный)
Перевод 2: Авторский (одноголосый, закадровый)
Перевод 3: Профессиональный (дублированный)
Субтитры: английские, русские
Оригинальная аудиодорожка: английскаяРежиссер: Вольфганг Петерсен / Wolfgang PetersenВ ролях: Дастин Хоффман, Рене Руссо, Морган Фриман, Кевин Спейси, Кьюба Гудинг мл., Патрик Демпси, Дональд Сазерленд, Малик Боуэнс, Закес Мокае, Сьюзэн Ли ХоффманОписание: Из Африки в Америку с зараженной обезьянкой попадает смертельный вирус. Специалисты-эпидемиологи из НИИ инфекционных заболеваний армии США, в числе которых полковник Сэм Дэниелс, срочно вылетают в эпицентр заражения. Двое из высших военных руководителей — начальники Сэма — скрывают от него, что им известен этот вирус, который они выводили несколько лет. И, более того, даже разработали сыворотку, способную обезвредить вирус.
Для предотвращения страшной эпидемии нужна сыворотка, которую можно получить лишь из крови первоначального носителя — той самой обезьянки. Дело осложняется тем, что место ее нахождения неизвестно, а счет идет на часы…Меню: есть, английское, статичноеТип релиза: DVD5
Контейнер: DVD-VideoВидео: PAL 16:9 (720x576(0.334)) MPEG Video, 25,000 кадр/сек, 3464 Кбит/сек
Аудио: Russian (Dolby AC-3, 6ch) 384 Кбит/сек, 48.0 КГц, Varus Video
Аудио 2: Russian (Dolby AC-3, 6ch) 384 Кбит/сек, 48.0 КГц, А. Гаврилов
Аудио 3: Russian (Dolby AC-3, 6ch) 384 Кбит/сек, 48.0 КГц, Мост-Видео
Аудио 4: English (Dolby AC-3, 6ch) 384 Кбит/сек, 48.0 КГц

Доп. информация по релизу

Дубляж от Varus Video взят с видеокассеты и подмешан в центральный канал, Гаврилов сделан с чистого голоса, дубляж от Мост-видео - с лицензии

MediaInfo

Общее
Полное имя : OUTBREAK\VIDEO_TS\VTS_01_1.VOB
Формат : MPEG-PS
Размер файла : 1024 Мбайт
Продолжительность : 28 м. 3 с.
Режим общего битрейта : Переменный
Общий поток : 5101 Кбит/секВидео
Идентификатор : 224 (0xE0)
Формат : MPEG Video
Версия формата : Version 2
Профиль формата : Main@Main
Параметр BVOP формата : Да
Параметр матрицы формата : По умолчанию
Параметр GOP формата : M=3, N=15
Структура изображения : Frame
Продолжительность : 28 м. 3 с.
Вид битрейта : Переменный
Битрейт : 3464 Кбит/сек
Максимальный битрейт : 7500 Кбит/сек
Ширина : 720 пикселей
Высота : 576 пикселей
Соотношение сторон : 16:9
Частота кадров : 25,000 кадров/сек
Стандарт вещания : PAL
Цветовое пространство : YUV
Субдискретизация насыщенности : 4:2:0
Битовая глубина : 8 бит
Тип развёртки : Чересстрочная
Порядок развёртки : Верхнее поле первое
Метод сжатия : С потерями
Бит/(Пиксели*Кадры) : 0.334
Временной код первого кадра : 00:00:00:00
Оригинал временного кода : Group of pictures header
GOP, открыто/закрыто : Открыто
GOP, открыто/закрыто на первом кадре : Закрыто
Размер потока : 695 Мбайт (68%)Аудио #1
Идентификатор : 189 (0xBD)-128 (0x80)
Формат : AC-3
Формат/Информация : Audio Coding 3
Параметр Endianness формата : Big
Режим смешивания : DVD-Video
Продолжительность : 28 м. 3 с.
Вид битрейта : Постоянный
Битрейт : 384 Кбит/сек
Каналы : 6 каналов
Расположение каналов : Front: L C R, Side: L R, LFE
Частота : 48,0 КГц
Частота кадров : 31,250 кадров/сек (1536 spf)
Битовая глубина : 16 бит
Метод сжатия : С потерями
Размер потока : 77,1 Мбайт (8%)
ServiceKind/String : Complete MainАудио #2
Идентификатор : 189 (0xBD)-129 (0x81)
Формат : AC-3
Формат/Информация : Audio Coding 3
Параметр Endianness формата : Big
Режим смешивания : DVD-Video
Продолжительность : 28 м. 3 с.
Вид битрейта : Постоянный
Битрейт : 384 Кбит/сек
Каналы : 6 каналов
Расположение каналов : Front: L C R, Side: L R, LFE
Частота : 48,0 КГц
Частота кадров : 31,250 кадров/сек (1536 spf)
Битовая глубина : 16 бит
Метод сжатия : С потерями
Размер потока : 77,1 Мбайт (8%)
ServiceKind/String : Complete MainАудио #3
Идентификатор : 189 (0xBD)-130 (0x82)
Формат : AC-3
Формат/Информация : Audio Coding 3
Параметр Endianness формата : Big
Режим смешивания : DVD-Video
Продолжительность : 28 м. 3 с.
Вид битрейта : Постоянный
Битрейт : 384 Кбит/сек
Каналы : 6 каналов
Расположение каналов : Front: L C R, Side: L R, LFE
Частота : 48,0 КГц
Частота кадров : 31,250 кадров/сек (1536 spf)
Битовая глубина : 16 бит
Метод сжатия : С потерями
Размер потока : 77,1 Мбайт (8%)
ServiceKind/String : Complete MainАудио #4
Идентификатор : 189 (0xBD)-131 (0x83)
Формат : AC-3
Формат/Информация : Audio Coding 3
Параметр Endianness формата : Big
Режим смешивания : DVD-Video
Продолжительность : 28 м. 3 с.
Вид битрейта : Постоянный
Битрейт : 384 Кбит/сек
Каналы : 6 каналов
Расположение каналов : Front: L C R, Side: L R, LFE
Частота : 48,0 КГц
Частота кадров : 31,250 кадров/сек (1536 spf)
Битовая глубина : 16 бит
Метод сжатия : С потерями
Размер потока : 77,1 Мбайт (8%)
ServiceKind/String : Complete MainТекст #1
Идентификатор : 189 (0xBD)-32 (0x20)
Формат : RLE
Формат/Информация : Run-length encoding
Режим смешивания : DVD-VideoТекст #2
Идентификатор : 189 (0xBD)-33 (0x21)
Формат : RLE
Формат/Информация : Run-length encoding
Режим смешивания : DVD-Video

Скриншоты меню

Скриншоты

Показать сообщения:    

Текущее время: 17-Окт 19:44

Часовой пояс: UTC - 1


Вы не можете начинать темы
Вы не можете отвечать на сообщения
Вы не можете редактировать свои сообщения
Вы не можете удалять свои сообщения
Вы не можете голосовать в опросах
Вы не можете прикреплять файлы к сообщениям
Вы не можете скачивать файлы

!ВНИМАНИЕ!
Сайт не предоставляет электронные версии произведений, а занимается лишь коллекционированием и каталогизацией ссылок, присылаемых и публикуемых на форуме нашими читателями. Если вы являетесь правообладателем какого-либо представленного материала и не желаете, чтобы ссылка на него находилась в нашем каталоге, свяжитесь с нами, и мы незамедлительно удалим ее. Файлы для обмена на трекере предоставлены пользователями сайта, и администрация не несет ответственности за их содержание. Просьба не заливать файлы, защищенные авторскими правами, а также файлы нелегального содержания!