Ивановский Торрент трекер
Яндекс.Погода
 

[Цитировать]
HUNTER

Этель и Эрнест : Ethel & Ernest«A true story» Год выпуска: 2016
Страна: Великобритания
Жанр: мультфильм, драма, история
Продолжительность: 01:25:53
Перевод: Одноголосый закадровый
русские субтитры: есть-Режиссёр: Роджер Мейнвуд : Roger Mainwood-Роли озвучивали: Пэм Феррис, Джим Бродбент, Бренда Блетин, Люк Тредэвэй, Роджер Аллам, Питер Уайт, Вирджиния МакКенна, Джун Браун, Гарри Коллетт, Алекс Джордан-Описание: Мультфильм по комиксу Рэймонда Бриггса рассказывает трогательную историю его собственных родителей Этель и Эрнеста, простых людей, проживающих в Лондоне. История их любви началась ещё в прошлом веке, в далёком 1928 году. На их долю выпали немалые испытания, начиная от банальной нехватки денег, всеобщей Депрессии и далее многие годы лишений, во времена Второй Мировой войны, трудный послевоенный период. Но они были вместе, безгранично любили друг друга, радовались успехам своего сыночка.- релиз: -- За работу со звуком большое спасибо *Sergeant_am*-Качество: HDTVRip 1080p
Формат: MKV
Видео кодек: AVC
Аудио кодек: AC3
Видео: 1920x1036, 25 fps, ~4821 kbps avg, 0.097 bit/pixel
Аудио #1: [RUS] 48 kHz, AC3 Dolby Digital, 2/0 (L,R) ch, ~192 kbps avg
Аудио #2: [ENG] 48 kHz, AC3 Dolby Digital, 3/2 (L,C,R,l,r) + LFE ch, ~384 kbps avg
субтитры: русские

MediaInfo

Общее
Уникальный идентификатор : 59348348768626603117794827883554070138 (0x2CA6138220BB477FC63245714E64DE7A)
Полное имя : D:\Ethel & Ernest.2016.HDTVRip 1080p.mkv
Формат : Matroska
Версия формата : Version 4 / Version 2
Размер файла : 3,24 Гбайт
Продолжительность : 1 ч. 25 м.
Общий поток : 5399 Кбит/сек
Название фильма : Ethel & Ernest.2016.HDTVRip 1080p -Azureus-
Дата кодирования : UTC 2019-01-11 09:08:40
Программа кодирования : mkvmerge v29.0.0 ('Like It Or Not') 64-bit
Библиотека кодирования : libebml v1.3.6 + libmatroska v1.4.9
Видео
Идентификатор : 1
Формат : AVC
Формат/Информация : Advanced Video Codec
Профиль формата : High@L4.2
Настройки формата : CABAC / 4 Ref Frames
Параметр CABAC формата : Да
Параметр RefFrames формата : 4 кадра
Идентификатор кодека : V_MPEG4/ISO/AVC
Продолжительность : 1 ч. 25 м.
Битрейт : 4821 Кбит/сек
Ширина : 1920 пикселей
Высота : 1036 пикселей
Соотношение сторон : 1,85:1
Режим частоты кадров : Постоянный
Частота кадров : 25,000 кадров/сек
Цветовое пространство : YUV
Субдискретизация насыщенности : 4:2:0
Битовая глубина : 8 бит
Тип развёртки : Прогрессивная
Бит/(Пиксели*Кадры) : 0.097
Размер потока : 2,89 Гбайт (89%)
Библиотека кодирования : x264 core 148 r2744 b97ae06
Настройки программы : cabac=1 / ref=4 / deblock=1:0:0 / analyse=0x3:0x113 / me=hex / subme=8 / psy=1 / psy_rd=1.00:0.00 / mixed_ref=1 / me_range=16 / chroma_me=1 / trellis=2 / 8x8dct=1 / cqm=0 / deadzone=21,11 / fast_pskip=1 / chroma_qp_offset=-2 / threads=12 / lookahead_threads=2 / sliced_threads=0 / nr=0 / decimate=1 / interlaced=0 / bluray_compat=0 / constrained_intra=0 / bframes=3 / b_pyramid=2 / b_adapt=1 / b_bias=0 / direct=3 / weightb=1 / open_gop=0 / weightp=2 / keyint=250 / keyint_min=25 / scenecut=40 / intra_refresh=0 / rc_lookahead=50 / rc=crf / mbtree=1 / crf=19.0 / qcomp=0.60 / qpmin=0 / qpmax=69 / qpstep=4 / ip_ratio=1.40 / aq=1:1.00
Язык : English
Default : Да
Forced : Нет
Цветовой диапазон : Limited
Коэффициенты матрицы : BT.709
Аудио #1
Идентификатор : 2
Формат : AC-3
Формат/Информация : Audio Coding 3
Идентификатор кодека : A_AC3
Продолжительность : 1 ч. 25 м.
Вид битрейта : Постоянный
Битрейт : 192 Кбит/сек
Каналы : 2 канала
Расположение каналов : Front: L R
Частота : 48,0 КГц
Частота кадров : 31,250 кадров/сек (1536 SPF)
Битовая глубина : 16 бит
Метод сжатия : С потерями
Размер потока : 118 Мбайт (4%)
Заголовок : VO
Язык : Russian
ServiceKind/String : Complete Main
Default : Да
Forced : Нет
Аудио #2
Идентификатор : 3
Формат : AC-3
Формат/Информация : Audio Coding 3
Идентификатор кодека : A_AC3
Продолжительность : 1 ч. 25 м.
Вид битрейта : Постоянный
Битрейт : 384 Кбит/сек
Каналы : 6 каналов
Расположение каналов : Front: L C R, Side: L R, LFE
Частота : 48,0 КГц
Частота кадров : 31,250 кадров/сек (1536 SPF)
Битовая глубина : 16 бит
Метод сжатия : С потерями
Размер потока : 236 Мбайт (7%)
Заголовок : ENG
Язык : English
ServiceKind/String : Complete Main
Default : Нет
Forced : Нет
Текст
Идентификатор : 4
Формат : UTF-8
Идентификатор кодека : S_TEXT/UTF8
Идентификатор кодека/Информация : UTF-8 Plain Text
Продолжительность : 1 ч. 23 м.
Битрейт : 97 бит/сек
ElementCount : 1152
Размер потока : 59,2 Кбайт (0%)
Заголовок : Rus Sub
Язык : Russian
Default : Нет
Forced : Нет


Показать сообщения:    

Текущее время: 19-Янв 10:04

Часовой пояс: UTC ± 0


Вы не можете начинать темы
Вы не можете отвечать на сообщения
Вы не можете редактировать свои сообщения
Вы не можете удалять свои сообщения
Вы не можете голосовать в опросах
Вы не можете прикреплять файлы к сообщениям
Вы не можете скачивать файлы

!ВНИМАНИЕ!
Сайт не предоставляет электронные версии произведений, а занимается лишь коллекционированием и каталогизацией ссылок, присылаемых и публикуемых на форуме нашими читателями. Если вы являетесь правообладателем какого-либо представленного материала и не желаете, чтобы ссылка на него находилась в нашем каталоге, свяжитесь с нами, и мы незамедлительно удалим ее. Файлы для обмена на трекере предоставлены пользователями сайта, и администрация не несет ответственности за их содержание. Просьба не заливать файлы, защищенные авторскими правами, а также файлы нелегального содержания!