Ивановский Торрент трекер
Яндекс.Погода
 

[Quote]
HUNTER

Эмоджи фильм
The Emoji Movie
«Not Easy Being Meh»
Страна: США
Жанр: мультфильм, фантастика, комедия, приключения, семейный
Год выпуска: 2017
Продолжительность: 01:26:22
Перевод: Профессиональный (полное дублирование) [Blu-ray EUR]
Субтитры: русские (форсированные, полные)
Оригинальная аудиодорожка: нет
Режиссер: Энтони Леондис / Tony Leondis
В ролях: ТиДжей Миллер, Джеймс Корден, Анна Фэрис, Майя Рудольф, Стивен Райт, Дженнифер Кулидж, Патрик Стюарт, Кристина Агилера, София Вергара, Рэйчел Рэй, Шон Хейс, Джейк Т. Остин
Описание:
Знаете ли вы, что внутри каждого смартфона есть красочный городок Текстополис, в котором живут эмоджи? И что они ужасно радуются, когда владелец телефона именно их выбирает для своего сообщения? Каждый из эмоджи отвечает лишь за одну эмоцию, и только Джин может выражать несколько эмоций сразу. Он очень хочет стать таким же, как и его собратья, и для этого вместе со своими друзьями пускается в увлекательное путешествие по приложениям телефона в поисках программы, которая поможет ему измениться. Неожиданно герои узнают о грозной опасности, нависшей над городом. Смогут ли друзья спасти Текстополис и всех его обитателей?

Автор рипа: stalkerok
Сэмпл
Качество видео: BDRip-AVC [The Emoji Movie (2017) Blu-ray Disc [EUR] -BD4U]
Формат видео: MKV
Видео: 1143 Кбит/сек, 886x370 (2.40:1), 23,976 кадр/сек, AVC
Аудио: русский, 64,0 Кбит/сек, 48,0 КГц / 24,0 КГц, 2 канала, AAC (HE-AAC / LC)
Навигация по главам: есть

x264/MediaInfo

---[Information] [27.01.2018 11:33:16] x264 [info]: frame I:1075 Avg QP:17.23 size: 44486
---[Information] [27.01.2018 11:33:16] x264 [info]: frame P:30547 Avg QP:21.47 size: 12330
---[Information] [27.01.2018 11:33:16] x264 [info]: frame B:92626 Avg QP:23.52 size: 3406
Общее
Уникальный идентификатор : 235748871131376671459096184528746301559 (0xB15B94BE2B20F003A180DE28527BC877)
Полное имя : M:\$new\The Emoji Movie (2017)\The.Emoji.Movie.2017.BDRip-AVC.RUS..stalkerok.new-team.mkv
Формат : Matroska
Версия формата : Version 4 / Version 2
Размер файла : 746 Мбайт
Продолжительность : 1 ч. 26 м.
Общий поток : 1208 Кбит/сек
Название фильма : The Emoji Movie (2017) (Rip by stalkerok)
Дата кодирования : UTC 2018-01-27 09:37:14
Программа кодирования : mkvmerge v8.6.1 ('Flying') 64bit
Библиотека кодирования : libebml v1.3.3 + libmatroska v1.4.4
Видео
Идентификатор : 4
Формат : AVC
Формат/Информация : Advanced Video Codec
Профиль формата : [email protected]
Параметр CABAC формата : Да
Параметр ReFrames формата : 12 кадров
Идентификатор кодека : V_MPEG4/ISO/AVC
Продолжительность : 1 ч. 26 м.
Битрейт : 1143 Кбит/сек
Ширина : 886 пикселей
Высота : 370 пикселей
Соотношение сторон : 2,40:1
Режим частоты кадров : Постоянный
Частота кадров : 23,976 (24000/1001) кадра/сек
Цветовое пространство : YUV
Субдискретизация насыщенности : 4:2:0
Битовая глубина : 8 бит
Тип развёртки : Прогрессивная
Бит/(Пиксели*Кадры) : 0.145
Размер потока : 706 Мбайт (95%)
Заголовок : The Emoji Movie (2017) (Rip by stalkerok)
Библиотека кодирования : x264 core 152 r2851kMod ba24899
Настройки программы : cabac=1 / ref=12 / deblock=1:-3:-2 / analyse=0x3:0x133 / me=umh / subme=10 / psy=1 / fade_compensate=0.00 / psy_rd=1.00:0.00 / mixed_ref=1 / me_range=32 / chroma_me=1 / trellis=2 / 8x8dct=1 / cqm=0 / deadzone=21,11 / fast_pskip=0 / chroma_qp_offset=-2 / threads=12 / lookahead_threads=2 / sliced_threads=0 / nr=0 / decimate=0 / interlaced=0 / bluray_compat=0 / constrained_intra=0 / bframes=16 / b_pyramid=2 / b_adapt=2 / b_bias=0 / direct=3 / weightb=1 / open_gop=0 / weightp=2 / keyint=240 / keyint_min=23 / scenecut=40 / intra_refresh=0 / rc_lookahead=60 / rc=2pass / mbtree=0 / bitrate=1143 / ratetol=1.0 / qcomp=0.65 / qpmin=0 / qpmax=69 / qpstep=4 / cplxblur=20.0 / qblur=0.5 / vbv_maxrate=50000 / vbv_bufsize=62500 / nal_hrd=none / filler=0 / ip_ratio=1.40 / pb_ratio=1.30 / aq=3:0.96 / zones=115432,124247,q=36
Default : Да
Forced : Нет
Аудио
Идентификатор : 3
Формат : AAC
Формат/Информация : Advanced Audio Codec
Профиль формата : HE-AAC / LC
Идентификатор кодека : A_AAC
Продолжительность : 1 ч. 26 м.
Битрейт : 64,0 Кбит/сек
Каналы : 2 канала
Расположение каналов : Front: L R
Частота : 48,0 КГц / 24,0 КГц
Частота кадров : 23,438 кадра/сек (1024 spf)
Метод сжатия : С потерями
Задержка видео : 31 мс.
Размер потока : 39,5 Мбайт (5%)
Язык : Russian
Default : Да
Forced : Нет
Текст #1
Идентификатор : 1
Формат : UTF-8
Идентификатор кодека : S_TEXT/UTF8
Идентификатор кодека/Информация : UTF-8 Plain Text
Продолжительность : 56 м.
Битрейт : 0 бит/сек
Count of elements : 7
Размер потока : 282 байт (0%)
Заголовок : Forced
Язык : Russian
Default : Да
Forced : Нет
Текст #2
Идентификатор : 2
Формат : UTF-8
Идентификатор кодека : S_TEXT/UTF8
Идентификатор кодека/Информация : UTF-8 Plain Text
Продолжительность : 1 ч. 25 м.
Битрейт : 85 бит/сек
Count of elements : 1228
Размер потока : 53,3 Кбайт (0%)
Язык : Russian
Default : Нет
Forced : Нет
Меню
00:00:00.000 : en:Chapter 1
00:05:12.478 : en:Chapter 2
00:11:38.531 : en:Chapter 3
00:15:49.406 : en:Chapter 4
00:22:24.051 : en:Chapter 5
00:26:48.607 : en:Chapter 6
00:32:11.137 : en:Chapter 7
00:39:15.186 : en:Chapter 8
00:44:16.695 : en:Chapter 9
00:48:43.128 : en:Chapter 10
00:53:07.392 : en:Chapter 11
00:58:19.370 : en:Chapter 12
01:02:35.752 : en:Chapter 13
01:07:18.909 : en:Chapter 14
01:11:54.893 : en:Chapter 15
01:16:05.477 : en:Chapter 16

Скриншоты



Display posts:    

Current time is: 09-Jul 12:02

All times are UTC ± 0


You cannot post new topics in this forum
You cannot reply to topics in this forum
You cannot edit your posts in this forum
You cannot delete your posts in this forum
You cannot vote in polls in this forum
You cannot attach files in this forum
You cannot download files in this forum

!ATTENTION!
The site does not give electronic versions of products, and is engaged only in a collecting and cataloguing of the references sent and published at a forum by our readers. If you are the legal owner of any submitted material and do not wish that the reference to it was in our catalogue, contact us and we shall immediately remove her. Files for an exchange on tracker are given by users of a site, and the administration does not bear the responsibility for their maintenance. The request to not fill in the files protected by copyrights, and also files of the illegal maintenance!