Ивановский Торрент трекер
Яндекс.Погода
DL-List and Torrent activity
None
 
     
 
style="text-align: center"
 

[Quote]
HUNTER

Элиас и морское сокровище
Elias og jakten pa havets gull
-Страна: Норвегия
Жанр: полнометражный мультфильм
Продолжительность: 01:11:37
Год выпуска: 2010
Перевод: Профессиональный (многоголосый закадровый) - ВГТРК
Русские субтитры: нет-Режиссёры: Лисе Осволл / Lise I. Osvoll- | Релиз: -Описание: Маленький спасательный катер Элиас и его друзья, команда Уютной бухты, готовятся к началу зимнего сезона ежегодной рыбной ловли. Но в этот раз большой улов им не светит. Оказывается, огромные промышленные траулеры выловили всю рыбу в океане, и для обычных маленьких рыбацких лодочек настали тяжелые времена. Элиас хочет помочь своим друзьям.-Семпл: http://sendfile.su/1099319-Качество: DVB (Канал "Gulli")
Формат: MPG
Видео: 720x576 (4:3) @ 768x576, 25.000 fps, MPEG-2 Video, ~2423 Kbps, 0.234 bits/pixel
Аудио: 48.0 KHz, MPEG-1 Audio layer 2, 2 ch, 192 Kbps
Субтитры: отсутствуют

MediaInfo

GeneralComplete name : Elias og jakten pa havets gull 2010 Gulli MVO VGTRK.mpgFormat : MPEG-PSFile size : 1.33 GiBDuration : 1h 11mnOverall bit rate mode : VariableOverall bit rate : 2 668 Kbps
VideoID : 224 (0xE0)Format : MPEG VideoFormat version : Version 2Format profile : Main@MainFormat settings, BVOP : YesFormat settings, Matrix : CustomFormat settings, GOP : VariableFormat settings, picture structure : FrameDuration : 1h 11mnBit rate mode : VariableBit rate : 2 423 KbpsMaximum bit rate : 15.0 MbpsWidth : 720 pixelsHeight : 576 pixelsDisplay aspect ratio : 4:3Frame rate : 25.000 fpsStandard : PALColor space : YUVChroma subsampling : 4:2:0Bit depth : 8 bitsScan type : InterlacedScan order : Top Field FirstCompression mode : LossyBits/(Pixel*Frame) : 0.234Time code of first frame : 00:00:00:00Time code source : Group of pictures headerGOP, Open/Closed : OpenStream size : 1.21 GiB (91%)GOP, Open/Closed of first frame : Closed
AudioID : 192 (0xC0)Format : MPEG AudioFormat version : Version 1Format profile : Layer 2Duration : 1h 11mnBit rate mode : ConstantBit rate : 192 KbpsChannel(s) : 2 channelsSampling rate : 48.0 KHzCompression mode : LossyStream size : 98.4 MiB (7%)

Скриншоты



Display posts:    

Current time is: 22-Sep 06:02

All times are UTC ± 0


You cannot post new topics in this forum
You cannot reply to topics in this forum
You cannot edit your posts in this forum
You cannot delete your posts in this forum
You cannot vote in polls in this forum
You cannot attach files in this forum
You cannot download files in this forum

!ATTENTION!
The site does not give electronic versions of products, and is engaged only in a collecting and cataloguing of the references sent and published at a forum by our readers. If you are the legal owner of any submitted material and do not wish that the reference to it was in our catalogue, contact us and we shall immediately remove her. Files for an exchange on tracker are given by users of a site, and the administration does not bear the responsibility for their maintenance. The request to not fill in the files protected by copyrights, and also files of the illegal maintenance!