Ивановский Торрент трекер
Яндекс.Погода
 

[Цитировать]
HUNTER

Эдгар Алан По. Гробница Лигейи / Edgar Allan Poe's The Tomb of Ligeia- Страна: Великобритания
Студия: Alta Vista Film Production
Жанр: ужасы, триллер, драма
Год выпуска: 1964
Продолжительность: 01:18:20-Перевод: Профессиональный (двухголосый закадровый) НТВ+ | Перевод Юрия Сербина. Текст читали Елена Солодилина, Павел Кипнис
Cубтитры: нет
Оригинальная аудиодорожка: английский-Режиссер: Роджер Корман / Roger Corman
В ролях: Джон Уэстбрук, Дерек Фрэнсис, Оливер Джонстон, Ричард Вернон, Фрэнк Торнтон, Рональд Адам, Дэнис Гилмор, Пенелопа Ли...- | Релиз: -Описание: Верден Фелл, ученый-египтолог, женится вторично после смерти своей горячо любимой жены Лигейи, увлекавшейся оккультизмом. Последними словами Лигейи были «Смерти себя не предаю». И вот, по прошествии некоторого времени, Фелл начинает замечать что у его новой жены начинают проявляться черты Лигейи…-Семпл: http://sendfile.su/1146048-Тип релиза: HDTV 1080i
Контейнер: TS
Видео: 1920x1080i (16:9), 25.000 fps, AVC, ~5996 kbps, 0.116 bits/pixel
Аудио 1: Русский, 48.0 KHz, MPEG-1 Audio layer 2, 2 ch, 192 kbps
Аудио 2: English, 48.0 KHz, MPEG-1 Audio layer 2, 2 ch, 192 kbps

MediaInfo

GeneralID : 1 (0x1)Complete name : The Tomb of Ligeia 1964 MGMHD 1080i.rus.eng.tsFormat : MPEG-TSFile size : 3.68 GiBDuration : 1h 18mnOverall bit rate mode : VariableOverall bit rate : 6 716 KbpsMaximum Overall bit rate : 35.5 Mbps
VideoID : 4113 (0x1011)Menu ID : 1 (0x1)Format : AVCFormat/Info : Advanced Video CodecFormat profile : Main@L4Format settings, CABAC : YesFormat settings, ReFrames : 4 framesCodec ID : 27Duration : 1h 18mnBit rate : 5 996 KbpsWidth : 1 920 pixelsHeight : 1 080 pixelsDisplay aspect ratio : 16:9Frame rate : 25.000 fpsStandard : ComponentColor space : YUVChroma subsampling : 4:2:0Bit depth : 8 bitsScan type : InterlacedScan order : Top Field FirstBits/(Pixel*Frame) : 0.116Stream size : 3.28 GiB (89%)Color range : LimitedColor primaries : BT.709Transfer characteristics : BT.709Matrix coefficients : BT.709
Audio #1ID : 4352 (0x1100)Menu ID : 1 (0x1)Format : MPEG AudioFormat version : Version 1Format profile : Layer 2Codec ID : 4Duration : 1h 18mnBit rate mode : ConstantBit rate : 192 KbpsChannel(s) : 2 channelsSampling rate : 48.0 KHzCompression mode : LossyStream size : 108 MiB (3%)Language : Russian
Audio #2ID : 4353 (0x1101)Menu ID : 1 (0x1)Format : MPEG AudioFormat version : Version 1Format profile : Layer 2Codec ID : 4Duration : 1h 18mnBit rate mode : ConstantBit rate : 192 KbpsChannel(s) : 2 channelsSampling rate : 48.0 KHzCompression mode : LossyStream size : 108 MiB (3%)Language : English

Скриншоты

Показать сообщения:    

Текущее время: 20-Сен 13:45

Часовой пояс: UTC - 1


Вы не можете начинать темы
Вы не можете отвечать на сообщения
Вы не можете редактировать свои сообщения
Вы не можете удалять свои сообщения
Вы не можете голосовать в опросах
Вы не можете прикреплять файлы к сообщениям
Вы не можете скачивать файлы

!ВНИМАНИЕ!
Сайт не предоставляет электронные версии произведений, а занимается лишь коллекционированием и каталогизацией ссылок, присылаемых и публикуемых на форуме нашими читателями. Если вы являетесь правообладателем какого-либо представленного материала и не желаете, чтобы ссылка на него находилась в нашем каталоге, свяжитесь с нами, и мы незамедлительно удалим ее. Файлы для обмена на трекере предоставлены пользователями сайта, и администрация не несет ответственности за их содержание. Просьба не заливать файлы, защищенные авторскими правами, а также файлы нелегального содержания!