Ивановский Торрент трекер
Яндекс.Погода
 

[Цитировать]
HUNTER

Ёлки Год выпуска: 2010
Страна: Россия
Жанр: комедия
Продолжительность: 01:28:58
Перевод: Не требуется
Русские субтитры: нет
Режиссер: Тимур Бекмамбетов, Александр Войтинский, Александр Андрющенко
Сценарий: Тимур Бекмамбетов, Андрей Курейчик, Дмитрий Алейников, Олег Маловичко, Роман Непомнящий
Продюсер: Тимур Бекмамбетов, Александра Ремизова, Ива Стромилова, Александр Войтинский
Оператор: Сергей Трофимов, Леван Капанадзе
Композитор: Павел Есенин
В ролях: Иван Ургант (Боря), Сергей Светлаков (Евгений), Вера Брежнева (играет саму себя), Алина Булынко (Варя), Сергей Гармаш (милиционер), Артур Смольянинов (Лёха), Екатерина Вилкова (Алинка), Мария Порошина (Юля), Дато Бахтадзе (пожарный), Александр Головин (сноубордист), Александр Домогаров мл. (лыжник), Никита Пресняков (таксист Пашка)-Сборы в России: $22 772 019
Мировая премьера: 13 декабря 2010
Релиз на DVD: 20 января 2011, «Новый Диск»
Релиз на Blu-ray: 20 января 2011, «Новый Диск»-Релиз: by Killbrain-Описание: События самой новогодней комедии ЁЛКИ происходят в 11 городах: Калининграде, Казани, Перми, Уфе, Бавлах, Екатеринбурге, Красноярске, Якутске, Новосибирске, Санкт-Петербурге и Москве. Герои фильма - таксист и поп-дива, бизнесмен и актер, сноубордист и лыжник, студент и пенсионерка, пожарный и директриса, вор и милиционер, гастарбайтер и президент России. Все они оказываются в самый канун Нового года в очень непростой ситуации, выйти из которой им поможет только чудо... или Теория шести рукопожатий, согласно которой каждый человек на земле знает другого через шесть знакомых.-Рейтинг
kinopoisk.ru: 6.812 (27 759)
imdb.com: 6.10 (523)-Раздача от группы: -Качество: BDRip
Формат: Matroska
Видео: AVC, High@L4.1, 9,0 Мбит/сек, 1920х816, 23,976 кадр/сек
Аудио: Russian; DTS; 1510 Kbps; CBR; 6 ch; 24 bit-

Знаете ли Вы, что...


  • В новогоднюю ночь (с 31 декабря 2010 года на 1 января 2011 года) президент России Дмитрий Медведев в своем блоге в Twitter опубликовал запись: «Всех с Наступающим и Наступившим! Помните, что на Деда Мороза надейся, а сам ...». Эти слова повторяют ключевую фразу из фильма.

MI


Формат : Matroska
Версия формата : Version 2
Размер файла : 6,53 Гбайт
Продолжительность : 1 ч. 28 м.
Общий поток : 10,5 Мбит/сек
Название фильма : Elki.2010.x264.Killbrain
Дата кодирования : UTC 2011-11-15 15:29:35
Программа кодирования : mkvmerge v5.0.1 ('Es ist Sommer') built on Oct 9 2011 11:55:43
Библиотека кодирования : libebml v1.2.2 + libmatroska v1.3.0
Видео
Идентификатор : 1
Формат : AVC
Формат/Информация : Advanced Video Codec
Профиль формата : High@L4.1
Параметр CABAC формата : Да
Параметр ReFrames формата : 4 кадра
Режим смешивания : Container profile=Unknown@0.0
Идентификатор кодека : V_MPEG4/ISO/AVC
Продолжительность : 1 ч. 28 м.
Битрейт : 9000 Кбит/сек
Ширина : 1920 пикселей
Высота : 816 пикселей
Соотношение сторон : 2,35:1
Частота кадров : 23,976 кадра/сек
Цветовое пространство : YUV
Субдискретизация насыщенности : 4:2:0
Битовая глубина : 8 бит
Тип развёртки : Прогрессивная
Бит/(Пиксели*Кадры) : 0.240
Размер потока : 5,46 Гбайт (84%)
Заголовок : Elki (2010)
Библиотека кодирования : x264 core 116 r2074 2641b9e
Настройки программы : cabac=1 / ref=4 / deblock=1:-2:-2 / analyse=0x3:0x113 / me=umh / subme=9 / psy=1 / psy_rd=1.00:0.00 / mixed_ref=1 / me_range=32 / chroma_me=1 / trellis=2 / 8x8dct=1 / cqm=0 / deadzone=21,11 / fast_pskip=0 / chroma_qp_offset=-3 / threads=6 / sliced_threads=0 / nr=0 / decimate=0 / interlaced=0 / bluray_compat=0 / constrained_intra=0 / bframes=6 / b_pyramid=2 / b_adapt=2 / b_bias=4 / direct=3 / weightb=1 / open_gop=0 / weightp=2 / keyint=240 / keyint_min=23 / scenecut=80 / intra_refresh=0 / rc_lookahead=24 / rc=2pass / mbtree=1 / bitrate=9000 / ratetol=1.5 / qcomp=0.60 / qpmin=0 / qpmax=61 / qpstep=4 / cplxblur=20.0 / qblur=0.5 / vbv_maxrate=50000 / vbv_bufsize=62500 / nal_hrd=none / ip_ratio=1.40 / aq=1:1.00
Язык : Russian
Default : Да
Forced : Нет
Основные цвета : BT.709-5, BT.1361, IEC 61966-2-4, SMPTE RP177
Характеристики трансфера : BT.709-5, BT.1361
Коэффициенты матрицы : BT.709-5, BT.1361, IEC 61966-2-4 709, SMPTE RP177
Аудио
Идентификатор : 2
Формат : DTS
Формат/Информация : Digital Theater Systems
Идентификатор кодека : A_DTS
Продолжительность : 1 ч. 28 м.
Вид битрейта : Постоянный
Битрейт : 1510 Кбит/сек
Каналы : 6 каналов
Расположение каналов : Front: L C R, Side: L R, LFE
Частота : 48,0 КГц
Битовая глубина : 24 бит
Метод сжатия : С потерями
Размер потока : 961 Мбайт (14%)
Заголовок : Dts, 5.1ch, 1510kbps BD
Язык : Russian
Default : Да
Forced : Нет
Меню
00:00:00.000 : :Chapter 01
00:04:07.455 : :Chapter 02
00:10:16.115 : :Chapter 03
00:16:49.091 : :Chapter 04
00:23:20.565 : :Chapter 05
00:28:40.510 : :Chapter 06
00:35:37.969 : :Chapter 07
00:41:07.423 : :Chapter 08
00:49:10.948 : :Chapter 09
00:54:17.003 : :Chapter 10
00:59:15.718 : :Chapter 11
01:04:01.504 : :Chapter 12
01:09:59.320 : :Chapter 13
01:14:18.078 : :Chapter 14
01:16:51.440 : :Chapter 15
01:22:04.544 : :Chapter 16

Скриншоты



Показать сообщения:    

Текущее время: 15-Дек 21:52

Часовой пояс: UTC ± 0


Вы не можете начинать темы
Вы не можете отвечать на сообщения
Вы не можете редактировать свои сообщения
Вы не можете удалять свои сообщения
Вы не можете голосовать в опросах
Вы не можете прикреплять файлы к сообщениям
Вы не можете скачивать файлы

!ВНИМАНИЕ!
Сайт не предоставляет электронные версии произведений, а занимается лишь коллекционированием и каталогизацией ссылок, присылаемых и публикуемых на форуме нашими читателями. Если вы являетесь правообладателем какого-либо представленного материала и не желаете, чтобы ссылка на него находилась в нашем каталоге, свяжитесь с нами, и мы незамедлительно удалим ее. Файлы для обмена на трекере предоставлены пользователями сайта, и администрация не несет ответственности за их содержание. Просьба не заливать файлы, защищенные авторскими правами, а также файлы нелегального содержания!