Ивановский Торрент трекер
Яндекс.Погода
DL-List and Torrent activity
Size:  5.8 GB   |    Registered:  14 days   |    Completed:  0 times
DL-List: None

Seeder not seen: Never

 
     
 
 
 

[Quote]
HUNTER

Рождество с Мэри / Mary Christmas
Страна: США
Жанр: драма, семейный
Год выпуска: 2002
Продолжительность: 01:29:07
Перевод: Профессиональный (многоголосый закадровый) компания "Мобильное телевидение" по заказу телеканала Hollywood
Субтитры: нет
Оригинальная аудиодорожка: английский
Режиссер: Джон Шнайдер / John Schneider
В ролях: Синтия Гибб, Джон Шнайдер, Дженна Бойд, Рени Риджели, Дэниэл Робак, Том Босли, Кэндис Стро, Норм Тьёминг, Бентон Дженнингс, Дайан Робин
Описание: Когда девятилетняя девочка пишет письмо Деду Морозу с просьбой прислать ей маму, директор телестанции узнает об этом и поручает репортеру с твердыми намерениями получить эту историю. С помощью няни-мужчины репортер узнает, что на Рождество желания все еще могут быть исполнены.
Сэмпл: http://multi-up.com/1251367
Качество видео: WEB-DL 1080p
Формат видео: mkv
Видео: AVC, 1920x1080 (16:9), 23.976 fps, 14.0 Mbps (0.282 bit/pixel)
Аудио: AC-3, 48.0 KHz, 2 ch, 192 Kbps, CBR - русский
Аудио 2: E-AC-3, 48.0 KHz, 2 ch, 224 Kbps, CBR - английский

MediaInfo

Общее
Уникальный идентификатор : 181007462501470540014985627645949091573 (0x882CC4EB87DB969B8EDFB62114919EF5)
Полное имя : I:\Mary.Christmas.2002.1080p.AMZN.WEB-DL.DDP2.0.x264-ABM.mkv
Формат : Matroska
Версия формата : Version 2
Размер файла : 9,15 Гбайт
Продолжительность : 1 ч. 29 м.
Общий поток : 14,7 Мбит/сек
Название фильма : Рождество с Мэри / Mary Christmas (2002)
Дата кодирования : UTC 2020-01-13 12:02:40
Программа кодирования : mkvmerge v8.2.0 ('World of Adventure') 64bit
Библиотека кодирования : libebml v1.3.1 + libmatroska v1.4.2
Видео
Идентификатор : 1
Формат : AVC
Формат/Информация : Advanced Video Codec
Профиль формата : High@L4
Настройки формата : CABAC / 4 Ref Frames
Параметр CABAC формата : Да
Параметр RefFrames формата : 4 кадра
Идентификатор кодека : V_MPEG4/ISO/AVC
Продолжительность : 1 ч. 29 м.
Битрейт : 14,0 Мбит/сек
Ширина : 1920 пикселей
Высота : 1080 пикселей
Соотношение сторон : 16:9
Режим частоты кадров : Постоянный
Частота кадров : 23,976 (24000/1001) кадра/сек
Цветовое пространство : YUV
Субдискретизация насыщенности : 4:2:0
Битовая глубина : 8 бит
Тип развёртки : Прогрессивная
Бит/(Пиксели*Кадры) : 0.282
Размер потока : 8,71 Гбайт (95%)
Язык : English
Default : Да
Forced : Нет
Цветовой диапазон : Limited
Основные цвета : BT.709
Характеристики трансфера : BT.709
Коэффициенты матрицы : BT.709
Аудио #1
Идентификатор : 2
Формат : AC-3
Формат/Информация : Audio Coding 3
Коммерческое название : Dolby Digital
Идентификатор кодека : A_AC3
Продолжительность : 1 ч. 29 м.
Вид битрейта : Постоянный
Битрейт : 192 Кбит/сек
Каналы : 2 канала
Channel layout : L R
Частота : 48,0 КГц
Частота кадров : 31,250 кадров/сек (1536 SPF)
Битовая глубина : 16 бит
Метод сжатия : С потерями
Размер потока : 122 Мбайт (1%)
Заголовок : Профессиональный (многоголосый закадровый) компания "Мобильное телевидение"
Язык : Russian
ServiceKind/String : Complete Main
Default : Да
Forced : Нет
Аудио #2
Идентификатор : 3
Формат : E-AC-3
Формат/Информация : Enhanced AC-3
Коммерческое название : Dolby Digital Plus
Идентификатор кодека : A_EAC3
Продолжительность : 1 ч. 29 м.
Вид битрейта : Постоянный
Битрейт : 224 Кбит/сек
Каналы : 2 канала
Channel layout : L R
Частота : 48,0 КГц
Частота кадров : 31,250 кадров/сек (1536 SPF)
Метод сжатия : С потерями
Размер потока : 143 Мбайт (2%)
Язык : English
ServiceKind/String : Complete Main
Default : Нет
Forced : Нет

Скриншоты


[iv-torrents.ru].t103123.torrent
Torrent: Registered [ 2020-01-13 16:21 ] · 003569ECD839AB93B1A563370DE9DDAC9CEFC95C

Download .torrent

Download

29 KB

Status: checked
Completed: 0 times
Size: 5.8 GB
terms.php


Display posts:    

Current time is: 27-Jan 19:33

All times are UTC ± 0


You cannot post new topics in this forum
You cannot reply to topics in this forum
You cannot edit your posts in this forum
You cannot delete your posts in this forum
You cannot vote in polls in this forum
You cannot attach files in this forum
You can download files in this forum

!ATTENTION!
The site does not give electronic versions of products, and is engaged only in a collecting and cataloguing of the references sent and published at a forum by our readers. If you are the legal owner of any submitted material and do not wish that the reference to it was in our catalogue, contact us and we shall immediately remove her. Files for an exchange on tracker are given by users of a site, and the administration does not bear the responsibility for their maintenance. The request to not fill in the files protected by copyrights, and also files of the illegal maintenance!