Ивановский Торрент трекер
Яндекс.Погода
DL-List and Torrent activity
Size:  4.13 GB   |    Registered:  7 days   |    Completed:  0 times
DL-List: None

Seeder not seen: 7 days

 
     
 
 
 

[Quote]
HUNTER

Двое и одна
Страна: СССР
Студия: Киностудия им. М. Горького, Ладья
Жанр: Драма
Год выпуска: 1988
Продолжительность: 01:18:40
Перевод: Не требуется
Субтитры: нет
Оригинальная аудиодорожка: русский
Режиссер: Эдуард Гаврилов
В ролях: Георгий Бурков, Маша Комаринская, Елена Майорова, Юрий Астафьев, Надежда Федосова, Вадим Захарченко, Юрий Белов, Анна Фроловцева, Мария Виноградова, Юрий Саранцев, Вера Петрова, Наталья Хорохорина, Андрей Гусев, Виктор Филиппов
Описание: Нелепая смерть женщины свела вместе троих героев фильма - Олю, шестилетнюю дочь погибшей, отца девочки и мужчину, с которым мать Оли познакомилась незадолго до гибели...
Дополнительная информация по релизу: Первый канал обрезал титры.

Сравнение с DVD



Сэмпл: Сэмпл
Тип релиза: HDTV 1080i
Контейнер: MKV
Видео: MPEG4 Video (H264) 1920x1080 25fps ~7.180 kbps
Аудио: MPEG Audio Layer 2 48000Hz stereo 192kbps

MediaInfo

Complete name : Двое и Одна (1988) HDTV 1080p by MIF.mkv
Format : Matroska
Format version : Version 4 / Version 2
File size : 4.13 GiB
Duration : 1 h 18 min
Overall bit rate : 7 517 kb/s
Encoded date : UTC 2019-05-12 16:04:08
Writing application : mkvmerge v25.0.0 ('Prog Noir') 64-bit
Writing library : libebml v1.3.6 + libmatroska v1.4.9
Video
ID : 1
Format : AVC
Format/Info : Advanced Video Codec
Format profile : High@L4
Format settings : CABAC / 4 Ref Frames
Format settings, CABAC : Yes
Format settings, ReFrames : 4 frames
Codec ID : V_MPEG4/ISO/AVC
Duration : 1 h 18 min
Bit rate : 7 323 kb/s
Width : 1 920 pixels
Height : 1 080 pixels
Display aspect ratio : 16:9
Frame rate mode : Constant
Frame rate : 25.000 FPS
Standard : Component
Color space : YUV
Chroma subsampling : 4:2:0
Bit depth : 8 bits
Scan type : Interlaced
Scan type, store method : Separated fields
Scan order : Top Field First
Bits/(Pixel*Frame) : 0.141
Stream size : 4.02 GiB (97%)
Default : No
Forced : No
Color range : Limited
Color primaries : BT.709
Transfer characteristics : BT.709
Matrix coefficients : BT.709
Audio
ID : 2
Format : MPEG Audio
Format version : Version 1
Format profile : Layer 2
Codec ID : A_MPEG/L2
Codec ID/Hint : MP2
Duration : 1 h 18 min
Bit rate mode : Constant
Bit rate : 192 kb/s
Channel(s) : 2 channels
Sampling rate : 48.0 kHz
Frame rate : 41.667 FPS (1152 SPF)
Compression mode : Lossy
Stream size : 108 MiB (3%)
Language : Russian
Default : No
Forced : No

Скриншоты


[iv-torrents.ru].t96336.torrent
Torrent: Registered [ 2019-05-14 12:39 ] · D98C6148ECE19B2B02E486E4662B9901789EB987

Download .torrent

Download

21 KB

Status: checked
Completed: 0 times
Size: 4.13 GB
terms.php


Display posts:    

Current time is: 21-May 19:33

All times are UTC ± 0


You cannot post new topics in this forum
You cannot reply to topics in this forum
You cannot edit your posts in this forum
You cannot delete your posts in this forum
You cannot vote in polls in this forum
You cannot attach files in this forum
You can download files in this forum

!ATTENTION!
The site does not give electronic versions of products, and is engaged only in a collecting and cataloguing of the references sent and published at a forum by our readers. If you are the legal owner of any submitted material and do not wish that the reference to it was in our catalogue, contact us and we shall immediately remove her. Files for an exchange on tracker are given by users of a site, and the administration does not bear the responsibility for their maintenance. The request to not fill in the files protected by copyrights, and also files of the illegal maintenance!