Ивановский Торрент трекер
Яндекс.Погода
 

[Quote]
HUNTER

Движение вверх
Страна: Россия
Студия: «Студия „ТриТэ“» Никиты Михалкова, телеканал «Россия-1», кинокомпания «Централ партнершип»
Издание: ООО "Астра Медия"
Жанр: спортивная драма, фильм-биография, семейный фильм
Год выпуска: 2017
Продолжительность: 02:13:43
Перевод: Не требуется
Субтитры: отсутствуют
Оригинальная аудиодорожка: русский
Режиссер: Антон Мегердичев
В ролях: Владимир Машков Владимир Гаранжин главный тренер мужской сборной СССР по баскетболу
Андрей Смоляков Григорий Моисеев помощник главного тренера мужской сборной СССР по баскетболу
Иван Колесников Александр Белов игрок сборной СССР по баскетболу (№ 14)
Кирилл Зайцев Сергей Белов игрок сборной СССР по баскетболу (№ 10)
Джон Сэвидж Генри «Хэнк» Айба главный тренер мужской сборной США по баскетболу
Марат Башаров Геннадий Терещенко функционер, член Госкомспорта СССР
Александра Ревенко Александра Свешникова невеста Александра Белова
Виктория Толстоганова Ксения Гаранжина супруга Владимира Гаранжина
Сергей Гармаш Сергей Павлов председатель Госкомспорта СССР
Василий Щипицын Всеволод врач сборной СССР по баскетболу, офицер КГБ СССР
Джеймс Тратас Модестас Паулаускас капитан сборной СССР по баскетболу (№ 5)
Кузьма Сапрыкин Иван Едешко игрок сборной СССР по баскетболу (№ 9)
Александр Ряполов Алжан Жармухамедов игрок сборной СССР по баскетболу (№ 7)
Иракли Микава Зураб Саканделидзе игрок сборной СССР по баскетболу (№ 6)
Отар Лордкипанидзе Михаил Коркия игрок сборной СССР по баскетболу (№ 11)
Егор Климович Александр Болошев игрок сборной СССР по баскетболу (№ 8)
Иван Орлов Сергей Коваленко игрок сборной СССР по баскетболу (№ 15)
Тэнэ Кирсанова чирлидер
Даниил Солдатов Майкл («Майк») репортёр
Александр Громов баскетболист
Эдгар Бехтер литовский турист, брат Модестаса Паулаускаса
Алексей Малашкин Александр Гомельский тренер мужской сборной СССР по баскетболу
Наталия Курдюбова Нина Ерёмина советский спортивный комментатор
Описание: 1970 год. У мужской сборной СССР по баскетболу меняется главный тренер. Новый наставник Владимир Гаранжин (Владимир Машков), до этого возглавлявший ленинградский «Спартак», сообщает на пресс-конференции, что на предстоящих Олимпийских играх в Мюнхене собирается обыграть сборную США. Заявления тренера пугают спортивных чиновников, для которых главное — достойно выступить на крупнейших соревнованиях в год 50-летия СССР и сохранить свои посты.
Гаранжин полностью меняет состав сборной и теперь в команде не преобладает «ЦСКА», но представлены игроки из многих других спортивных клубов республик СССР. Гаранжин начинает тренировки по новой методике; ему необходимо вдохновить команду и убедить игроков в том, что они смогут совершить невозможное — обыграть непобедимых до того момента американцев.
Ночь с 9 на 10 сентября 1972 года. Город Мюнхен, переживший 3 дня назад теракт, продолжает проведение спортивных состязаний. Наступает долгожданный финал баскетбольного турнира XX летних Олимпийских игр. В финал выходят, как и планировал Гаранжин, сборные СССР и США. К решающей встрече обе сборные приходят без поражений. А исход драматического финального поединка решится в последние три секунды матча…
Меню: анимированное
Сэмпл: http://sendfile.su/1397025
Тип релиза: DVD9
Контейнер: DVD-Video
Видео: 5773 кбит/сек 720^480 (16:9) 29,970 кадров/сек
Аудио: 384 кбит/сек 48,0 кгц 16 бит 6 каналов АС-3

MediaInfo

Общее
Полное имя : E:\ФИЛЬМЫ ТОРРЕНТ\Движение Вверх ( 2017 DVD9)\VIDEO_TS\VTS_01_4.VOB
Формат : MPEG-PS
Размер файла : 1024 Мбайт
Продолжительность : 22 м. 53 с.
Режим общего битрейта : Переменный
Общий поток : 6253 Кбит/сек
Видео
Идентификатор : 224 (0xE0)
Формат : MPEG Video
Версия формата : Version 2
Профиль формата : [email protected]
Настройки формата : CustomMatrix / BVOP
Параметр BVOP формата : Да
Параметр матрицы формата : Выборочная
Параметр GOP формата : Variable
Продолжительность : 22 м. 53 с.
Вид битрейта : Переменный
Битрейт : 5773 Кбит/сек
Ширина : 720 пикселей
Высота : 480 пикселей
Соотношение сторон : 16:9
Частота кадров : 29,970 (30000/1001) кадров/сек
Стандарт вещания : NTSC
Цветовое пространство : YUV
Субдискретизация насыщенности : 4:2:0
Битовая глубина : 8 бит
Тип развёртки : Прогрессивная
Метод сжатия : С потерями
Бит/(Пиксели*Кадры) : 0.557
Временной код первого кадра : 01:08:57:19
Оригинал временного кода : Group of pictures header
Размер потока : 940 Мбайт (92%)
Основные цвета : BT.601 NTSC
Характеристики трансфера : BT.601
Коэффициенты матрицы : BT.601
Аудио
Идентификатор : 189 (0xBD)-128 (0x80)
Формат : AC-3
Формат/Информация : Audio Coding 3
Режим смешивания : DVD-Video
Продолжительность : 22 м. 53 с.
Вид битрейта : Постоянный
Битрейт : 384 Кбит/сек
Каналы : 6 каналов
Расположение каналов : Front: L C R, Side: L R, LFE
Частота : 48,0 КГц
Частота кадров : 31,250 кадров/сек (1536 SPF)
Битовая глубина : 16 бит
Метод сжатия : С потерями
Задержка видео : -493 мс.
Размер потока : 62,9 Мбайт (6%)
ServiceKind/String : Complete Main

DVDInfo

Title: partition1
Size: 5.86 Gb ( 6 142 198 KBytes ) - DVD-9
Enabled regions: 1, 2, 3, 4, 5, 6, 7, 8
VTS_01 :
Play Length: 02:13:42
Video: NTSC 16:9 (720x480) VBR, Auto Pan&Scan
Audio:
Not specified (Dolby AC3, 6 ch)
Menu Video:
NTSC 4:3 (720x480) VBR
Auto Pan&Scan, Auto Letterboxed
Menu Language Unit :
Root Menu

Скриншоты меню

Скриншоты



Display posts:    

Current time is: 07-Jul 05:56

All times are UTC ± 0


You cannot post new topics in this forum
You cannot reply to topics in this forum
You cannot edit your posts in this forum
You cannot delete your posts in this forum
You cannot vote in polls in this forum
You cannot attach files in this forum
You cannot download files in this forum

!ATTENTION!
The site does not give electronic versions of products, and is engaged only in a collecting and cataloguing of the references sent and published at a forum by our readers. If you are the legal owner of any submitted material and do not wish that the reference to it was in our catalogue, contact us and we shall immediately remove her. Files for an exchange on tracker are given by users of a site, and the administration does not bear the responsibility for their maintenance. The request to not fill in the files protected by copyrights, and also files of the illegal maintenance!