Важное объявление!
У Нас Все раздачи мультитрекерные, при нуле пиров в релизах, можете смело вставать на закачку!
 
Автор Сообщение

HUNTER

Стаж:
4 года 4 месяца
Сообщений:
56839

Репутация: 101

[+] [-]
Вне форума [Профиль] [ЛС]

DTM. 2015. Этап 02. Германия. Lausitzring. Гонка 2
Вид спорта: Автогонки
Дата/Год выпуска: 31.05.15
Язык комментариев: русский/немецкий
Автор записи: SashaR.
Качество: DVB-S2 Remux
Формат видео: TS

Media Info

H:\Раздачи\DTM. 2015. Этап 02. Германия. Lausitzring\Гонка 2 (ARD HD).ts
General #6
ID : 6 (0x6)
Complete name : H:\Раздачи\DTM. 2015. Этап 02. Германия. Lausitzring\Гонка 2 (ARD HD).ts
Format : MPEG-TS
File size : 8.43 GiB
Duration : 1h 37mn
Overall bit rate mode : Variable
Overall bit rate : 12.4 Mbps
Video #5101
ID : 5101 (0x13ED)
Menu ID : 10301 (0x283D)
Format : AVC
Format/Info : Advanced Video Codec
Format profile : High@L4.0
Format settings, CABAC : Yes
Format settings, ReFrames : 4 frames
Codec ID : 27
Duration : 1h 37mn
Bit rate : 10.8 Mbps
Width : 1 280 pixels
Height : 720 pixels
Display aspect ratio : 16:9
Frame rate : 50.000 fps
Color space : YUV
Chroma subsampling : 4:2:0
Bit depth : 8 bits
Scan type : Progressive
Bits/(Pixel*Frame) : 0.234
Stream size : 7.35 GiB (87%)
Audio #5102
ID : 5102 (0x13EE)
Menu ID : 10301 (0x283D)
Format : MPEG Audio
Format version : Version 1
Format profile : Layer 2
Codec ID : 3
Duration : 1h 37mn
Bit rate mode : Constant
Bit rate : 256 Kbps
Channel count : 2 channels
Sampling rate : 48.0 KHz
Compression mode : Lossy
Delay relative to video : 91ms
Stream size : 178 MiB (2%)
Language : German
Audio #5103
ID : 5103 (0x13EF)
Menu ID : 10301 (0x283D)
Format : MPEG Audio
Format version : Version 1
Format profile : Layer 2
Codec ID : 3
Duration : 1h 37mn
Bit rate mode : Constant
Bit rate : 256 Kbps
Channel count : 2 channels
Sampling rate : 48.0 KHz
Compression mode : Lossy
Delay relative to video : 91ms
Stream size : 178 MiB (2%)
Audio #5106
ID : 5106 (0x13F2)
Menu ID : 10301 (0x283D)
Format : AC-3
Format/Info : Audio Coding 3
Mode extension : CM (complete main)
Format settings, Endianness : Big
Codec ID : 6
Duration : 1h 37mn
Bit rate mode : Constant
Bit rate : 448 Kbps
Channel count : 2 channels
Channel positions : Front: L R
Sampling rate : 48.0 KHz
Bit depth : 16 bits
Compression mode : Lossy
Delay relative to video : 167ms
Stream size : 312 MiB (4%)
Language : German
Text #5105
ID : 5105 (0x13F1)
Menu ID : 10301 (0x283D)
Format : DVB Subtitle
Codec ID : 6
Duration : 1h 37mn
Delay relative to video : 920ms
Language : German
H:\Раздачи\DTM. 2015. Этап 02. Германия. Lausitzring\Гонка 2 (Спорт 1 HD).ts
General #6
ID : 6 (0x6)
Complete name : H:\Раздачи\DTM. 2015. Этап 02. Германия. Lausitzring\Гонка 2 (Спорт 1 HD).ts
Format : MPEG-TS
File size : 4.21 GiB
Duration : 52mn 10s
Overall bit rate mode : Variable
Overall bit rate : 11.5 Mbps
Video #303
ID : 303 (0x12F)
Menu ID : 20103 (0x4E87)
Format : AVC
Format/Info : Advanced Video Codec
Format profile : Main@L4.0
Format settings, CABAC : Yes
Format settings, ReFrames : 4 frames
Codec ID : 27
Duration : 52mn 8s
Bit rate : 10.8 Mbps
Width : 1 920 pixels
Height : 1 080 pixels
Display aspect ratio : 16:9
Frame rate : 25.000 fps
Standard : Component
Color space : YUV
Chroma subsampling : 4:2:0
Bit depth : 8 bits
Scan type : Interlaced
Scan order : Top Field First
Bits/(Pixel*Frame) : 0.208
Stream size : 3.93 GiB (93%)
Color primaries : BT.709
Transfer characteristics : BT.709
Matrix coefficients : BT.709
Audio #403
ID : 403 (0x193)
Menu ID : 20103 (0x4E87)
Format : MPEG Audio
Format version : Version 1
Format profile : Layer 2
Codec ID : 4
Duration : 52mn 9s
Bit rate mode : Constant
Bit rate : 192 Kbps
Channel count : 2 channels
Sampling rate : 48.0 KHz
Compression mode : Lossy
Delay relative to video : 54ms
Stream size : 71.6 MiB (2%)
Language : Russian

Продолжительность

Гонка 2 (ARD HD) - 01:37:28
Гонка 2 (Спорт 1 HD) - 00:52:10

Скриншоты



_________________
Показать сообщения:    

Текущее время: Сегодня 03:01

Часовой пояс: GMT



Вы не можете начинать темы
Вы не можете отвечать на сообщения
Вы не можете редактировать свои сообщения
Вы не можете удалять свои сообщения
Вы не можете голосовать в опросах
Вы не можете прикреплять файлы к сообщениям
Вы не можете скачивать файлы