DTM 2015 / Этап 1 / Hockenheimring / Гонка 1 / ARD 1 HD [02.05.15, Автогонки, DVB-S2 Remux, 720p, DE] :: Ивановский Торрент трекер
Важное объявление!
У Нас Все раздачи мультитрекерные, при нуле пиров в релизах, можете смело вставать на закачку!
Статистика раздачи
Размер:     |    Зарегистрирован:     |    Скачан:     |   
Нет
 
     
 
 
Автор Сообщение

HUNTER

Стаж:
4 года 11 месяцев
Сообщений:
66054

Репутация: 101

[+] [-]
Вне форума [Профиль] [ЛС]

DTM 2015 / Этап 1 / Hockenheimring / Гонка 1 / ARD 1 HD
Вид спорта: Автогонки
Дата/Год выпуска: 02.05.15
Язык комментариев: немецкий
Автор записи: SashaR.
Качество: DVB-S2 Remux
Формат видео: TS
Видео: AVC, 1280x720, 16:9, 10.4 Mbps, 50 fps
Аудио: MP2, 256 Kbps, 48.0 kHz, 2 channels
Аудио: MP2, 256 Kbps, 48.0 kHz, 2 channels
Аудио: AC-3, 448 Kbps, 48.0 kHz, 6 channels

Media Info

H:\Раздачи\DTM 2015. Этап 1. Hockenheimring\Das Erste HD_fixed_fixed.ts
General #6
ID : 6 (0x6)
Complete name : H:\Раздачи\DTM 2015. Этап 1. Hockenheimring\Das Erste HD_fixed_fixed.ts
Format : MPEG-TS
File size : 6.29 GiB
Duration : 1h 15mn
Overall bit rate mode : Variable
Overall bit rate : 11.9 Mbps
Video #5101
ID : 5101 (0x13ED)
Menu ID : 10301 (0x283D)
Format : AVC
Format/Info : Advanced Video Codec
Format profile : High@L4.0
Format settings, CABAC : Yes
Format settings, ReFrames : 4 frames
Codec ID : 27
Duration : 1h 15mn
Bit rate : 10.4 Mbps
Width : 1 280 pixels
Height : 720 pixels
Display aspect ratio : 16:9
Frame rate : 50.000 fps
Color space : YUV
Chroma subsampling : 4:2:0
Bit depth : 8 bits
Scan type : Progressive
Bits/(Pixel*Frame) : 0.225
Stream size : 5.46 GiB (87%)
Audio #5102
ID : 5102 (0x13EE)
Menu ID : 10301 (0x283D)
Format : MPEG Audio
Format version : Version 1
Format profile : Layer 2
Codec ID : 3
Duration : 1h 15mn
Bit rate mode : Constant
Bit rate : 256 Kbps
Channel count : 2 channels
Sampling rate : 48.0 KHz
Compression mode : Lossy
Delay relative to video : 109ms
Stream size : 138 MiB (2%)
Language : German
Audio #5103
ID : 5103 (0x13EF)
Menu ID : 10301 (0x283D)
Format : MPEG Audio
Format version : Version 1
Format profile : Layer 2
Codec ID : 3
Duration : 1h 15mn
Bit rate mode : Constant
Bit rate : 256 Kbps
Channel count : 2 channels
Sampling rate : 48.0 KHz
Compression mode : Lossy
Delay relative to video : 109ms
Stream size : 138 MiB (2%)
Audio #5106
ID : 5106 (0x13F2)
Menu ID : 10301 (0x283D)
Format : AC-3
Format/Info : Audio Coding 3
Mode extension : CM (complete main)
Format settings, Endianness : Big
Codec ID : 6
Duration : 1h 15mn
Bit rate mode : Constant
Bit rate : 448 Kbps
Channel count : 2 channels
Channel positions : Front: L R
Sampling rate : 48.0 KHz
Bit depth : 16 bits
Compression mode : Lossy
Delay relative to video : 91ms
Stream size : 242 MiB (4%)
Language : German
Text #5105
ID : 5105 (0x13F1)
Menu ID : 10301 (0x283D)
Format : DVB Subtitle
Codec ID : 6
Duration : 1h 15mn
Delay relative to video : 1s 100ms
Language : German

Продолжительность

Гонка 1 - 01:15:27

Скриншоты


_________________
Показать сообщения:    

Текущее время: Сегодня 03:48

Часовой пояс: GMT



Вы не можете начинать темы
Вы не можете отвечать на сообщения
Вы не можете редактировать свои сообщения
Вы не можете удалять свои сообщения
Вы не можете голосовать в опросах
Вы не можете прикреплять файлы к сообщениям
Вы не можете скачивать файлы