Ивановский Торрент трекер
Яндекс.Погода
 

[Цитировать]
HUNTER

DTM. 2015. Этап 05. Spielberg. Гонка 1, 2
Вид спорта: Автогонки
Дата/Год выпуска: 01-02.08.15
Язык комментариев: немецкий, русский
Автор записи: SashaR.
Качество: DVB-S2 Remux
Формат видео: TS
Видео: AVC, 1280x720, 16:9, 8 434 Kbps, 50 fps
Аудио: MP2, 256 Kbps, 48.0 kHz, 2 channels

Media Info

H:\Раздачи\DTM. 2015. Этап 05. Spielberg\Гонка 1.ts
General #6
ID : 6 (0x6)
Complete name : H:\Раздачи\DTM. 2015. Этап 05. Spielberg\Гонка 1.ts
Format : MPEG-TS
File size : 4.57 GiB
Duration : 1h 6mn
Overall bit rate mode : Variable
Overall bit rate : 9 893 Kbps
Video #5101
ID : 5101 (0x13ED)
Menu ID : 10301 (0x283D)
Format : AVC
Format/Info : Advanced Video Codec
Format profile : High@L4.0
Format settings, CABAC : Yes
Format settings, ReFrames : 4 frames
Codec ID : 27
Duration : 1h 6mn
Bit rate : 8 434 Kbps
Width : 1 280 pixels
Height : 720 pixels
Display aspect ratio : 16:9
Frame rate : 50.000 fps
Color space : YUV
Chroma subsampling : 4:2:0
Bit depth : 8 bits
Scan type : Progressive
Bits/(Pixel*Frame) : 0.183
Stream size : 3.89 GiB (85%)
Audio #5102
ID : 5102 (0x13EE)
Menu ID : 10301 (0x283D)
Format : MPEG Audio
Format version : Version 1
Format profile : Layer 2
Codec ID : 3
Duration : 1h 6mn
Bit rate mode : Constant
Bit rate : 256 Kbps
Channel count : 2 channels
Sampling rate : 48.0 KHz
Compression mode : Lossy
Delay relative to video : 176ms
Stream size : 121 MiB (3%)
Language : German
Audio #5103
ID : 5103 (0x13EF)
Menu ID : 10301 (0x283D)
Format : MPEG Audio
Format version : Version 1
Format profile : Layer 2
Codec ID : 3
Duration : 1h 6mn
Bit rate mode : Constant
Bit rate : 256 Kbps
Channel count : 2 channels
Sampling rate : 48.0 KHz
Compression mode : Lossy
Delay relative to video : 176ms
Stream size : 121 MiB (3%)
Audio #5106
ID : 5106 (0x13F2)
Menu ID : 10301 (0x283D)
Format : AC-3
Format/Info : Audio Coding 3
Mode extension : CM (complete main)
Format settings, Endianness : Big
Codec ID : 6
Duration : 1h 6mn
Bit rate mode : Constant
Bit rate : 448 Kbps
Channel count : 2 channels
Channel positions : Front: L R
Sampling rate : 48.0 KHz
Bit depth : 16 bits
Compression mode : Lossy
Delay relative to video : 154ms
Stream size : 212 MiB (5%)
Language : German
Text #5105
ID : 5105 (0x13F1)
Menu ID : 10301 (0x283D)
Format : DVB Subtitle
Codec ID : 6
Duration : 1h 5mn
Delay relative to video : 17s 980ms
Language : German

Продолжительность

Гонка 1 - 01:06:03

Скриншоты



Показать сообщения:    

Текущее время: 13-Дек 07:28

Часовой пояс: UTC ± 0


Вы не можете начинать темы
Вы не можете отвечать на сообщения
Вы не можете редактировать свои сообщения
Вы не можете удалять свои сообщения
Вы не можете голосовать в опросах
Вы не можете прикреплять файлы к сообщениям
Вы не можете скачивать файлы

!ВНИМАНИЕ!
Сайт не предоставляет электронные версии произведений, а занимается лишь коллекционированием и каталогизацией ссылок, присылаемых и публикуемых на форуме нашими читателями. Если вы являетесь правообладателем какого-либо представленного материала и не желаете, чтобы ссылка на него находилась в нашем каталоге, свяжитесь с нами, и мы незамедлительно удалим ее. Файлы для обмена на трекере предоставлены пользователями сайта, и администрация не несет ответственности за их содержание. Просьба не заливать файлы, защищенные авторскими правами, а также файлы нелегального содержания!