Важное объявление!
У Нас Все раздачи мультитрекерные, при нуле пиров в релизах, можете смело вставать на закачку!
 
Автор Сообщение

HUNTER

Стаж:
4 года 6 месяцев
Сообщений:
60910

Репутация: 101

[+] [-]
Вне форума [Профиль] [ЛС]

DTM. 2015. Этап 04. Голландия. Zandvoort. Гонка 1, 2
Вид спорта: Автогонки
Дата/Год выпуска: 11-12.07.15
Язык комментариев: немецкий
Автор записи: SashaR.
Качество: DVB-S2 Remux
Формат видео: TS
Видео: AVC, 1280x720, 16:9, 7 784 Kbps, 50 fps
Аудио: MP2, 256 Kbps, 48.0 kHz, 2 channels
Аудио: MP2, 256 Kbps, 48.0 kHz, 2 channels
Аудио: MP2, 256 Kbps, 48.0 kHz, 2 channels
Аудио: AC-3, 448 Kbps, 48.0 kHz, 6 channels

Media Info

H:\Раздачи\DTM. 2015. Этап 04. Голландия. Zandvoort. Гонка 1, 2\Race 1.ts
General #6
ID : 6 (0x6)
Complete name : H:\Раздачи\DTM. 2015. Этап 04. Голландия. Zandvoort. Гонка 1, 2\Race 1.ts
Format : MPEG-TS
File size : 3.99 GiB
Duration : 1h 2mn
Overall bit rate : 9 209 Kbps
Video #5101
ID : 5101 (0x13ED)
Menu ID : 10301 (0x283D)
Format : AVC
Format/Info : Advanced Video Codec
Codec ID : 27
Duration : 1h 2mn
Bit rate : 7 784 Kbps
Stream size : 3.37 GiB (85%)
Audio #5102
ID : 5102 (0x13EE)
Menu ID : 10301 (0x283D)
Format : MPEG Audio
Format version : Version 1
Format profile : Layer 2
Codec ID : 3
Duration : 48ms
Bit rate mode : Constant
Bit rate : 256 Kbps
Channel count : 2 channels
Sampling rate : 48.0 KHz
Compression mode : Lossy
Stream size : 1.50 KiB (0%)
Language : German
Audio #5103
ID : 5103 (0x13EF)
Menu ID : 10301 (0x283D)
Format : MPEG Audio
Format version : Version 1
Format profile : Layer 2
Codec ID : 3
Duration : 48ms
Bit rate mode : Constant
Bit rate : 256 Kbps
Channel count : 2 channels
Sampling rate : 48.0 KHz
Compression mode : Lossy
Stream size : 1.50 KiB (0%)
Audio #5106
ID : 5106 (0x13F2)
Menu ID : 10301 (0x283D)
Format : AC-3
Format/Info : Audio Coding 3
Mode extension : CM (complete main)
Format settings, Endianness : Big
Codec ID : 6
Duration : 128ms
Bit rate mode : Constant
Bit rate : 448 Kbps
Channel count : 2 channels
Channel positions : Front: L R
Sampling rate : 48.0 KHz
Bit depth : 16 bits
Compression mode : Lossy
Stream size : 7.00 KiB (0%)
Language : German

Продолжительность

Race 1 - 01:02:04
Race 2 - 01:31:15

Скриншоты


_________________
Показать сообщения:    

Текущее время: Сегодня 22:10

Часовой пояс: GMT



Вы не можете начинать темы
Вы не можете отвечать на сообщения
Вы не можете редактировать свои сообщения
Вы не можете удалять свои сообщения
Вы не можете голосовать в опросах
Вы не можете прикреплять файлы к сообщениям
Вы не можете скачивать файлы
Наши партнеры: интернет магазин Ивановского трикотажа textilla.ru