DTM 2014 / Этап 6 / Австрия. Spielberg / Гонка / Авто+ [03.08.14, Автогонки, DVB Remux, 576i, RU] :: Ивановский Торрент трекер
Важное объявление!
У Нас Все раздачи мультитрекерные, при нуле пиров в релизах, можете смело вставать на закачку!
Статистика раздачи
Размер:     |    Зарегистрирован:     |    Скачан:     |   
Нет
 
     
 
 
Автор Сообщение

HUNTER

Стаж:
4 года 11 месяцев
Сообщений:
66066

Репутация: 101

[+] [-]
Вне форума [Профиль] [ЛС]

DTM 2014 / Этап 6 / Австрия. Spielberg / Гонка / Авто+
Вид спорта: Автогонки
Дата/Год выпуска: 03.08.14
Язык комментариев: русский (Сергей Беднарук)
Автор записи: SashaR.
Качество: DVB Remux
Формат видео: TS
Видео: MPEG2, 720x576 (16:9), 3 123 Kbps, 25 fps
Аудио: MP2, 192 Kbps, 48.0 kHz, 2 channels

Media Info

F:\Раздачи\DTM 2014. Этап 6. Spielberg. Гонка (Авто+).ts
General #2
ID : 2 (0x2)
Complete name : F:\Раздачи\DTM 2014. Этап 6. Spielberg. Гонка (Авто+).ts
Format : MPEG-TS
File size : 3.30 GiB
Duration : 2h 15mn
Overall bit rate mode : Variable
Overall bit rate : 3 489 Kbps
Video #332
ID : 332 (0x14C)
Menu ID : 10212 (0x27E4)
Format : MPEG Video
Format version : Version 2
Format profile : Main@Main
Format settings, BVOP : Yes
Format settings, Matrix : Custom
Format settings, GOP : Variable
Codec ID : 2
Duration : 2h 15mn
Bit rate mode : Variable
Bit rate : 3 123 Kbps
Maximum bit rate : 15.0 Mbps
Width : 720 pixels
Height : 576 pixels
Display aspect ratio : 4:3
Frame rate : 25.000 fps
Standard : PAL
Color space : YUV
Chroma subsampling : 4:2:0
Bit depth : 8 bits
Scan type : Interlaced
Scan order : Top Field First
Compression mode : Lossy
Bits/(Pixel*Frame) : 0.301
Stream size : 2.96 GiB (89%)
Audio #422
ID : 422 (0x1A6)
Menu ID : 10212 (0x27E4)
Format : MPEG Audio
Format version : Version 1
Format profile : Layer 2
Codec ID : 4
Duration : 2h 15mn
Bit rate mode : Constant
Bit rate : 192 Kbps
Channel count : 2 channels
Sampling rate : 48.0 KHz
Compression mode : Lossy
Delay relative to video : 487ms
Stream size : 186 MiB (6%)
Language : Russian
Language, more info : Clean effects

Продолжительность

02:15:35

Скриншоты


_________________
Показать сообщения:    

Текущее время: Сегодня 22:38

Часовой пояс: GMT



Вы не можете начинать темы
Вы не можете отвечать на сообщения
Вы не можете редактировать свои сообщения
Вы не можете удалять свои сообщения
Вы не можете голосовать в опросах
Вы не можете прикреплять файлы к сообщениям
Вы не можете скачивать файлы