Ивановский Торрент трекер
Яндекс.Погода
DL-List and Torrent activity
None
 
     
 
style="text-align: center"
 

[Quote]
HUNTER

Дозор джунглей / Les as de la jungle
Страна: Франция
Жанр: мультфильм, комедия, приключения, семейный
Год выпуска: 2017
Продолжительность: 01:37:04-Перевод: Профессиональный (дублированный)
Субтитры: нет
Оригинальная аудиодорожка: нет-Режиссер: Дэвид Ало / David Alaux-В ролях: Пол Борн, Филипп Бозо, Паскаль Касанова, Эммануэль Кюртиль, Мишель Меля, Селин Монсарра, Лоран Морто, Жан-Филипп Пюмартин, Барбара Тиссье, Алексис Томассиан-Описание: Пингвин Морис тигрового окраса уверен, что он и в самом деле тигр — герой, в котором нуждаются джунгли. Вместе со своей энергичной командой разношерстных животных под названием «Дозор джунглей» он неусыпно стоит на страже справедливости и покоя. С переменным успехом, конечно, но они стараются. Однако вскоре ему предстоит столкнуться с невероятно коварным и безжалостным врагом — коалой Игорем и его армией туповатых бабуинов…-Качество видео: BDRip
Формат видео: AVI
Видео: 688x288 (2.39:1), 24 fps, XviD build 73 ~933 kbps avg, 0.20 bit/pixel
Аудио: 48 kHz, MPEG Layer 3, 2 ch, ~128.00 kbps avg-Сэмпл-

MI

Код:Format : AVI
Format/Info : Audio Video Interleave
File size : 744 MiB
Duration : 1 h 37 min
Overall bit rate : 1 071 kb/s
Writing application : VirtualDubMod 1.5.10.3 | www.virtualdub-fr.org || (build 2550/release)
Writing library : VirtualDubMod build 2550/release
Video
ID : 0
Format : MPEG-4 Visual
Format profile : Advanced Simple@L5
Format settings : BVOP1
Format settings, BVOP : 1
Format settings, QPel : No
Format settings, GMC : No warppoints
Format settings, Matrix : Default (H.263)
Codec ID : XVID
Codec ID/Hint : XviD
Duration : 1 h 37 min
Bit rate : 934 kb/s
Width : 688 pixels
Height : 288 pixels
Display aspect ratio : 2.40:1
Frame rate : 24.000 FPS
Color space : YUV
Chroma subsampling : 4:2:0
Bit depth : 8 bits
Scan type : Progressive
Compression mode : Lossy
Bits/(Pixel*Frame) : 0.196
Stream size : 648 MiB (87%)
Writing library : XviD 73
Audio
ID : 1
Format : MPEG Audio
Format version : Version 1
Format profile : Layer 3
Codec ID : 55
Codec ID/Hint : MP3
Duration : 1 h 37 min
Bit rate mode : Constant
Bit rate : 128 kb/s
Channel(s) : 2 channels
Sampling rate : 48.0 kHz
Frame rate : 41.667 FPS (1152 SPF)
Compression mode : Lossy
Stream size : 88.9 MiB (12%)
Alignment : Aligned on interleaves
Interleave, duration : 42 ms (1.00 video frame)
Interleave, preload duratio : 504 ms
Writing library : LAME3.99r
Encoding settings : -m s -V 4 -q 2 -lowpass 17 -b 128

Скриншоты



Display posts:    

Current time is: 16-Sep 04:48

All times are UTC ± 0


You cannot post new topics in this forum
You cannot reply to topics in this forum
You cannot edit your posts in this forum
You cannot delete your posts in this forum
You cannot vote in polls in this forum
You cannot attach files in this forum
You cannot download files in this forum

!ATTENTION!
The site does not give electronic versions of products, and is engaged only in a collecting and cataloguing of the references sent and published at a forum by our readers. If you are the legal owner of any submitted material and do not wish that the reference to it was in our catalogue, contact us and we shall immediately remove her. Files for an exchange on tracker are given by users of a site, and the administration does not bear the responsibility for their maintenance. The request to not fill in the files protected by copyrights, and also files of the illegal maintenance!