Ивановский Торрент трекер
Яндекс.Погода
DL-List and Torrent activity
None
 
     
 
style="text-align: center"
 

[Quote]
HUNTER

Дозор джунглей / Les as de la jungle
Страна: Франция
Жанр: мультфильм, комедия, приключения, семейный
Год выпуска: 2017
Продолжительность: 01:37:04-Перевод: Профессиональный (дублированный)
Субтитры: нет
Оригинальная аудиодорожка: нет-Режиссер: Дэвид Ало / David Alaux-В ролях: Пол Борн, Филипп Бозо, Паскаль Касанова, Эммануэль Кюртиль, Мишель Меля, Селин Монсарра, Лоран Морто, Жан-Филипп Пюмартин, Барбара Тиссье, Алексис Томассиан-Описание: Пингвин Морис тигрового окраса уверен, что он и в самом деле тигр — герой, в котором нуждаются джунгли. Вместе со своей энергичной командой разношерстных животных под названием «Дозор джунглей» он неусыпно стоит на страже справедливости и покоя. С переменным успехом, конечно, но они стараются. Однако вскоре ему предстоит столкнуться с невероятно коварным и безжалостным врагом — коалой Игорем и его армией туповатых бабуинов…-Качество видео: BDRip
Формат видео: AVI
Видео: 720x304 (2.37:1), 24.000 fps, XviD build 73 ~1689 kbps avg, 0.32 bit/pixel
Аудио: 48 kHz, AC3 Dolby Digital, 3/2 (L,C,R,l,r) + LFE ch, ~448 kbps-Сэмпл-

MI

Код:Format : AVI
Format/Info : Audio Video Interleave
File size : 1.46 GiB
Duration : 1 h 37 min
Overall bit rate : 2 147 kb/s
Writing application : VirtualDubMod 1.5.10.3 | www.virtualdub-fr.org || (build 2550/release)
Writing library : VirtualDubMod build 2550/release
Video
ID : 0
Format : MPEG-4 Visual
Format profile : Advanced Simple@L5
Format settings : BVOP1 / Custom Matrix
Format settings, BVOP : 1
Format settings, QPel : No
Format settings, GMC : No warppoints
Format settings, Matrix : Custom
Codec ID : XVID
Codec ID/Hint : XviD
Duration : 1 h 37 min
Bit rate : 1 689 kb/s
Width : 720 pixels
Height : 304 pixels
Display aspect ratio : 2.35:1
Frame rate : 24.000 FPS
Color space : YUV
Chroma subsampling : 4:2:0
Bit depth : 8 bits
Scan type : Progressive
Compression mode : Lossy
Bits/(Pixel*Frame) : 0.322
Stream size : 1.15 GiB (79%)
Writing library : XviD 73
Audio
ID : 1
Format : AC-3
Format/Info : Audio Coding 3
Codec ID : 2000
Duration : 1 h 37 min
Bit rate mode : Constant
Bit rate : 448 kb/s
Channel(s) : 6 channels
Channel positions : Front: L C R, Side: L R, LFE
Sampling rate : 48.0 kHz
Frame rate : 31.250 FPS (1536 SPF)
Bit depth : 16 bits
Compression mode : Lossy
Stream size : 311 MiB (21%)
Alignment : Split accross interleaves
Interleave, duration : 42 ms (1.00 video frame)
Interleave, preload duratio : 500 ms
Service kind : Complete Main

Скриншоты



Display posts:    

Current time is: 16-Sep 08:51

All times are UTC ± 0


You cannot post new topics in this forum
You cannot reply to topics in this forum
You cannot edit your posts in this forum
You cannot delete your posts in this forum
You cannot vote in polls in this forum
You cannot attach files in this forum
You cannot download files in this forum

!ATTENTION!
The site does not give electronic versions of products, and is engaged only in a collecting and cataloguing of the references sent and published at a forum by our readers. If you are the legal owner of any submitted material and do not wish that the reference to it was in our catalogue, contact us and we shall immediately remove her. Files for an exchange on tracker are given by users of a site, and the administration does not bear the responsibility for their maintenance. The request to not fill in the files protected by copyrights, and also files of the illegal maintenance!