Ивановский Торрент трекер
Яндекс.Погода
 

[Цитировать]
HUNTER

Дозор джунглей / Les as de la jungle
Страна: Франция
Жанр: Мультфильм, комедия, приключения, семейный
Продолжительность: 01:37:04
Год выпуска: 2017
Перевод: Профессиональный (дублированный)
Русские субтитры: нет
Режиссёр: Дэвид Ало / David Alaux
Роли озвучивали: Пол Борн, Филипп Бозо, Паскаль Касанова, Эммануэль Кюртиль, Мишель Меля, Селин Монсарра, Лоран Морто, Жан-Филипп Пюмартин, Барбара Тиссье, Алексис Томассиан
Описание: Пингвин Морис тигрового окраса уверен, что он и в самом деле тигр — герой, в котором нуждаются джунгли. Вместе со своей энергичной командой разношерстных животных под названием «Дозор джунглей» он неусыпно стоит на страже справедливости и покоя. С переменным успехом, конечно, но они стараются. Однако вскоре ему предстоит столкнуться с невероятно коварным и безжалостным врагом — коалой Игорем и его армией туповатых бабуинов…
-
Знаете ли вы, что...
Мультфильм снят по мотивам анимационного сериала, который известен в России под названием «Отряд джунглей спешит на помощь».
На создание полнометражного мультфильма потребовалось два года.
В самом начале работы над проектом команда главных героев выступала в разном составе, были даже разные локации для развития событий. Например, в самой первой версии Морис был пингвином-зеброй, жившим в саванне. В итоге Морис стал таким, каким его увидят зрители — пингвином-тигром, который заботится о своем друге тигровой рыбке.
Специально для сцены полета в логово коалы Игоря авторы построили километры гибких декораций, ведь по ним должны были перемещаться персонажи со скоростью от 50 до 200 км/ч.
-
Качество: BDRip 1080p
Формат: MKV
Видео: x264 L4.1 High, 1920x804, 23.976 fps, 11,2 Мбит avg
Аудио: Русский: DTS, 48,0 КГц/24 бит, 6 каналов, 1509 Кбит [Дубляж]
Аудио 2: French: DTS, 48,0 КГц/24 бит, 6 каналов, 1509 Кбит [Original]
Субтитры: Отсутствуют
Семпл: http://multi-up.com/1183291-

Подробные технические данные

Формат : Matroska
Версия формата : Version 4 / Version 2
Размер файла : 9,64 Гбайт
Продолжительность : 1 ч. 37 м.
Общий поток : 14,2 Мбит/сек
Название фильма : Дозор джунглей (2017)
Дата кодирования : UTC 2018-01-15 15:10:11
Программа кодирования : mkvmerge v19.0.0 ('Brave Captain') 64-bit
Библиотека кодирования : libebml v1.3.5 + libmatroska v1.4.8
Обложка : Yes
Attachments : cover.png
Видео
Идентификатор : 1
Формат : AVC
Формат/Информация : Advanced Video Codec
Профиль формата : High@L4.1
Настройки формата : CABAC / 5 Ref Frames
Параметр CABAC формата : Да
Параметр ReFrames формата : 5 кадров
Идентификатор кодека : V_MPEG4/ISO/AVC
Продолжительность : 1 ч. 37 м.
Битрейт : 11,2 Мбит/сек
Ширина : 1920 пикселей
Высота : 804 пикселя
Соотношение сторон : 2,40:1
Режим частоты кадров : Постоянный
Частота кадров : 24,000 кадра/сек
Цветовое пространство : YUV
Субдискретизация насыщенности : 4:2:0
Битовая глубина : 8 бит
Тип развёртки : Прогрессивная
Бит/(Пиксели*Кадры) : 0.302
Размер потока : 7,59 Гбайт (79%)
Заголовок : Full HD
Библиотека кодирования : x264 core 148 r2708 86b7198
Настройки программы : cabac=1 / ref=5 / deblock=1:-1:-1 / analyse=0x3:0x133 / me=umh / subme=11 / psy=1 / psy_rd=1.00:0.15 / mixed_ref=1 / me_range=24 / chroma_me=1 / trellis=2 / 8x8dct=1 / cqm=0 / deadzone=21,11 / fast_pskip=1 / chroma_qp_offset=-3 / threads=12 / lookahead_threads=2 / sliced_threads=0 / nr=0 / decimate=0 / interlaced=0 / bluray_compat=0 / constrained_intra=0 / bframes=9 / b_pyramid=2 / b_adapt=2 / b_bias=0 / direct=3 / weightb=1 / open_gop=0 / weightp=2 / keyint=240 / keyint_min=24 / scenecut=40 / intra_refresh=0 / rc_lookahead=60 / rc=2pass / mbtree=0 / bitrate=11200 / ratetol=1.0 / qcomp=0.60 / qpmin=0 / qpmax=69 / qpstep=4 / cplxblur=20.0 / qblur=0.5 / vbv_maxrate=62500 / vbv_bufsize=78125 / nal_hrd=none / filler=0 / ip_ratio=1.40 / pb_ratio=1.30 / aq=2:1.00
Язык : French
Default : Да
Forced : Нет
Цветовой диапазон : Limited
Основные цвета : BT.709
Характеристики трансфера : BT.709
Коэффициенты матрицы : BT.709
Аудио #1
Идентификатор : 2
Формат : DTS
Формат/Информация : Digital Theater Systems
Идентификатор кодека : A_DTS
Продолжительность : 1 ч. 37 м.
Вид битрейта : Постоянный
Битрейт : 1509 Кбит/сек
Каналы : 6 каналов
Расположение каналов : Front: L C R, Side: L R, LFE
Частота : 48,0 КГц
Частота кадров : 93,750 кадра/сек (512 SPF)
Битовая глубина : 24 бит
Метод сжатия : С потерями
Размер потока : 1,02 Гбайт (11%)
Заголовок : Дубляж
Язык : Russian
Default : Да
Forced : Нет
Аудио #2
Идентификатор : 3
Формат : DTS
Формат/Информация : Digital Theater Systems
Идентификатор кодека : A_DTS
Продолжительность : 1 ч. 37 м.
Вид битрейта : Постоянный
Битрейт : 1509 Кбит/сек
Каналы : 6 каналов
Расположение каналов : Front: L C R, Side: L R, LFE
Частота : 48,0 КГц
Частота кадров : 93,750 кадра/сек (512 SPF)
Битовая глубина : 24 бит
Метод сжатия : С потерями
Размер потока : 1,02 Гбайт (11%)
Заголовок : Original
Язык : French
Default : Нет
Forced : Нет
Меню
00:00:00.000 : :Chapter 1
00:00:41.792 : :Chapter 2
00:12:11.875 : :Chapter 3
00:24:51.750 : :Chapter 4
00:39:02.458 : :Chapter 5
00:52:31.750 : :Chapter 6
01:04:47.667 : :Chapter 7
01:15:59.458 : :Chapter 8
01:29:06.708 : :Chapter 9

Скриншоты



Показать сообщения:    

Текущее время: 19-Янв 10:03

Часовой пояс: UTC ± 0


Вы не можете начинать темы
Вы не можете отвечать на сообщения
Вы не можете редактировать свои сообщения
Вы не можете удалять свои сообщения
Вы не можете голосовать в опросах
Вы не можете прикреплять файлы к сообщениям
Вы не можете скачивать файлы

!ВНИМАНИЕ!
Сайт не предоставляет электронные версии произведений, а занимается лишь коллекционированием и каталогизацией ссылок, присылаемых и публикуемых на форуме нашими читателями. Если вы являетесь правообладателем какого-либо представленного материала и не желаете, чтобы ссылка на него находилась в нашем каталоге, свяжитесь с нами, и мы незамедлительно удалим ее. Файлы для обмена на трекере предоставлены пользователями сайта, и администрация не несет ответственности за их содержание. Просьба не заливать файлы, защищенные авторскими правами, а также файлы нелегального содержания!