Ивановский Торрент трекер
Яндекс.Погода
DL-List and Torrent activity
None
 
     
 
style="text-align: center"
 

[Quote]
ForZe

Дневники вампира
The Vampire Diaries

-Год выпуска: 2009
Страна: США
Жанр: ужасы, драма
Продолжительность: ~42 мин. серия
Перевод: Профессиональный (полное дублирование) ТНТ-Режиссер:Маркос Сига, Кевин Брэй, Дж. Миллер Тобин, ...
Сценарий: Джули Плек, Л.Дж. Смит, Кевин Уильямсон, ...
Продюсер: Маркос Сига, Боб Леви, Лесли Морганштейн, ...-В ролях: Нина Добрев, Пол Уэсли, Йен Сомерхалдер, Катерина Грэхэм, Стивен Р. МакКуин, Бенджамин Эйрс-Описание: Прошло всего четыре месяца после трагической аварии, в которой погибли их родители, и 17-летняя Елена Гилберт и ее 15-летний брат Джереми все еще пытаются оправиться от потери и вернуться к нормальной жизни. Елена всегда была отличной ученицей, красивой и популярной девушкой в школе, но теперь ей очень тяжело скрывать свою печаль от внешнего мира. В начале учебного года внимание Елены и ее друзей привлекает новый ученик, загадочный и красивый Стефан Сальваторе.
Стефан и Елена тут же чувствуют взаимную симпатию, но Елена даже не подозревает, что Стефан — вампир, которому уже сотни лет, и который старается мирно жить среди людей, несмотря на то, что его брат, Дэймон — воплощение вампирской жестокости и кровожадности. Теперь два брата-вампира — один добрый, другой злой — ведут борьбу за души Елены, ее друзей и других жителей городка Мистик Фоллз.
Елена — «золотая» девочка, она привыкла, что мальчики стоят перед ней на коленях. Стефан — темноволосый красавец, он никогда не смотрит на солнце и прячет глаза за темными очками. Он — единственный, на кого чары Елены не действуют, хотя он и пытается защитить ее от мрачных тайн своего прошлого.
Дэймон — его сексуальный и жестокий брат, он всю жизнь посвятил мести Стефану, когда-то предавшему его. Сейчас ему нужна Елена и он пойдет на все, чтобы добиться ее тела. И заполучить ее душу. Дневники вампира: история прекрасной Елены, по воле рока ставшей причиной смертельной схватки братьев-вампиров.-Качество: WEB-DLRip
Формат: MP4
Видео кодек: H.264
Аудио кодек: AAC
Видео: 480x272, 504 kbps, 25fps
Аудио: 48 kHz, 2 ch, 128.00 kbps-

Список серий:

  • Пилот (Pilot)
  • Ночь кометы (Night of the Comet)
  • Вечер пятницы кусается (Friday Night Bites)
  • Семейные узы (Family Ties)
  • Для меня ты вампир (You're Undead to Me)
  • Потерянные девушки (Lost Girls)
  • Преследуемые (Haunted)
  • 162 свечи (162 Candles)
  • Повторение истории (History Repeating)
  • Переломный момент (The Turning Point)
  • Кровные узы (Bloodlines)
  • Нехороший город (Unpleasantville)
  • Дети проклятых (Children of the Damned)
  • Обманув однажды... (Fool Me Once)
  • Несколько хороших людей (A Few Good Men)
  • По соседству (There Goes the Neighborhood)
  • Впусти нужного человека (Let the Right One In)
  • Под контролем (Under Control)
  • Мисс Мистик Фолс (Miss Mystic Falls)
  • Братья по крови (Blood Brothers)
  • Изабель (Isobel)
  • День основателей (Founder's Day)

Скриншоты:

Тех.данные:

General
Complete name : H:\ the.vampire.diaries.s01e01.WEB-DL_NewStudio.TV.mp4
Format : MPEG-4
Format profile : Base Media
Codec ID : isom
File size : 193 MiB
Duration : 42mn 29s
Overall bit rate : 635 Kbps
Encoded date : UTC 2010-08-16 12:16:20
Tagged date : UTC 2010-08-16 12:16:20
Video #1
ID : 1
Format : AVC
Format/Info : Advanced Video Codec
Format profile : Baseline@L3.0
Format settings, CABAC : No
Format settings, ReFrames : 1 frame
Codec ID : avc1
Codec ID/Info : Advanced Video Coding
Duration : 42mn 29s
Bit rate mode : Variable
Bit rate : 504 Kbps
Nominal bit rate : 512 Kbps
Maximum bit rate : 2 733 Kbps
Width : 480 pixels
Height : 272 pixels
Display aspect ratio : 16:9
Frame rate mode : Constant
Frame rate : 25.000 fps
Resolution : 24 bits
Colorimetry : 4:2:0
Scan type : Progressive
Bits/(Pixel*Frame) : 0.154
Stream size : 153 MiB (79%)
Title : Imported with GPAC 0.4.6-DEV (build 1)
Writing library : x264 core 79 r1342kMod e8501ef
Encoding settings : cabac=0 / ref=1 / deblock=1:0:0 / analyse=0x1:0x111 / me=hex / subme=6 / psy=1 / psy_rd=1.0:0.0 / mixed_ref=0 / me_range=16 / chroma_me=1 / trellis=0 / 8x8dct=0 / cqm=0 / deadzone=21,11 / chroma_qp_offset=-2 / threads=3 / nr=0 / decimate=1 / mbaff=0 / constrained_intra=0 / bframes=0 / wpredp=0 / keyint=250 / keyint_min=25 / scenecut=40 / rc_lookahead=40 / rc=abr / mbtree=1 / bitrate=512 / ratetol=1.0 / qcomp=0.60 / qpmin=10 / qpmax=51 / qpstep=4 / ip_ratio=1.40 / aq=1:1.00
Encoded date : UTC 2010-08-16 12:16:20
Tagged date : UTC 2010-08-16 12:16:37
Audio #2
ID : 2
Format : AAC
Format/Info : Advanced Audio Codec
Format version : Version 4
Format profile : LC
Format settings, SBR : No
Codec ID : 40
Duration : 42mn 29s
Bit rate mode : Variable
Bit rate : 128 Kbps
Maximum bit rate : 153 Kbps
Channel(s) : 2 channels
Channel positions : L R
Sampling rate : 48.0 KHz
Resolution : 16 bits
Stream size : 38.9 MiB (20%)
Encoded date : UTC 2010-08-16 12:16:32
Tagged date : UTC 2010-08-16 12:16:37


Display posts:    

Current time is: 16-Oct 06:47

All times are UTC ± 0


You cannot post new topics in this forum
You cannot reply to topics in this forum
You cannot edit your posts in this forum
You cannot delete your posts in this forum
You cannot vote in polls in this forum
You cannot attach files in this forum
You cannot download files in this forum

!ATTENTION!
The site does not give electronic versions of products, and is engaged only in a collecting and cataloguing of the references sent and published at a forum by our readers. If you are the legal owner of any submitted material and do not wish that the reference to it was in our catalogue, contact us and we shall immediately remove her. Files for an exchange on tracker are given by users of a site, and the administration does not bear the responsibility for their maintenance. The request to not fill in the files protected by copyrights, and also files of the illegal maintenance!