Ивановский Торрент трекер
Яндекс.Погода
 

[Цитировать]
HUNTER

Дмитрий Новосельцев | НЛП Мастер Коммуникации + VIP-блок
Страна: Россия
Тематика: НЛП, Моделирование
Тип раздаваемого материала: Видеоурок
Продолжительность: 36:28:56
Год выпуска: 2011
Язык: Русский
Перевод: Не требуется
Описание: Курс Мастер Коммуникации - это уникальная возможность, для Вас научиться управлять своим сознанием, моделировать, проектировать и внедрять навыки самых успешных людей во всём мире, а так же создавать новые приёмы и подходы для решения поставленных задач.
Доп. информация: Основные цели мастерского курса:
• Умение извлекать, записывать, анализировать, усовершенствовать и использовать различные мыслительные и поведенческие стратегии людей, а именно освоить процессы моделирования, проектирования и встраивания эффективных стратегий поведения человека.
• Управление собственным сознанием и видением, за счёт работы с метафорами и убеждениями.
• Формирование системного подхода к работе с целями и ценностями человека
• Описание элементов мастерства и получение доступа к состоянию мастерства
• А так же многое другое…
Этот Курс посвящён следующим темам:
• Обучение основным принципам и приемам моделирования стратегий поведения.
• Обучение основным принципам и приемам проектирования стратегий поведения.
• Обучение основным принципам и приемам встраивания стратегий поведения.
• Изучение лингвистических, физиологических и субмодальных паттернов метапрограмм.
• Работа с Убеждениями и Метафорами.
и еще о многом другом.
Ведь не раз в жизни у Вас возникал вопрос о том: «а как же этот человек смог добиться таких результатов?», «вот было бы здорово научиться так же легко делать это», «как создавать и управлять успешным бизнесом», и так далее…
Зачем нужны такие технологии?
Коммуникативные техники стали разрабатывать в 70 годах 20 века. Их основателями были профессор университета Калифорнии Джон Гриндер и студент 4 курса Ричард Бендлер. Они были вдохновлены мастерством некоторых гениальных людей, чьи поведенческие модели и были положены в основу современных техник Коммуникации.
Моделирование является основной Техникой Коммуникации. Т.е Это процесс понимания и копирования языковых структур и поведенческих моделей мастеров своего дела в какой любо области знания.
Гриндер и Бендлер начали свое исследование с изучения и моделирования поведения и речи 3 людей: Фритца Перлса, Вирджинии Сатир, и Милтона Эриксона. Они являлись выдающимися мастерами в области психотерапии. Перлс, Сатир и Эриксон показывали необыкновенное неосознанное превосходство. Гении не могли предоставить Бендлеру и Гриндеру объяснение тому что они делают. Бендлеру и Гриндеру пришлось просто на подсознательном уровне осознать и почувствовать их методики и дать им объяснение.
Не имея глубоких знаний в психотерапии, Гриндеру и Бендлеру за 2 года удалось выделить основные отличия поведения Перлса, Сатир и Эриксона. Они запрограммировали результаты исследования в языковую модель, использовав при этом, модели трансформации грамматики в объяснительный словарь. Через моделирование Гриндеру и Бендлеру удалось выделить скрытые навыки Перлса, Сатир и Эриксона. Так появились первые Техники Профессиональной Коммуникации.
Качество: DVDRip
Видео: AVC/H.264, 640x360, 1440x1080@1920x1080, ~1500-5022 Kbps
Аудио: MP3, 2 ch, 320 Kbps, CBR

MediaInfo

General
Complete name : C:\Torrents\Новосельцев Дмитрий - НЛП Мастер + VIP-блок (2011)\1 занятие\1 занятие - 1.avi
Format : AVI
Format/Info : Audio Video Interleave
File size : 644 MiB
Duration : 49mn 13s
Overall bit rate : 1 830 Kbps
Video
ID : 0
Format : AVC
Format/Info : Advanced Video Codec
Format profile : High@L5.1
Format settings, CABAC : Yes
Format settings, ReFrames : 2 frames
Codec ID : H264
Duration : 49mn 13s
Bit rate : 1 500 Kbps
Width : 640 pixels
Height : 360 pixels
Display aspect ratio : 16:9
Frame rate : 25.000 fps
Color space : YUV
Chroma subsampling : 4:2:0
Bit depth : 8 bits
Scan type : Progressive
Bits/(Pixel*Frame) : 0.260
Stream size : 528 MiB (82%)
Audio
ID : 1
Format : MPEG Audio
Format version : Version 1
Format profile : Layer 3
Codec ID : 55
Codec ID/Hint : MP3
Duration : 49mn 10s
Bit rate mode : Constant
Bit rate : 320 Kbps
Channel(s) : 2 channels
Sampling rate : 44.1 KHz
Compression mode : Lossy
Stream size : 113 MiB (17%)
Alignment : Aligned on interleaves
Interleave, duration : 40 ms (1.00 video frame)
Interleave, preload duration : 130 ms
Writing library : LAMELAME

Скриншоты



Показать сообщения:    

Текущее время: 19-Янв 11:32

Часовой пояс: UTC ± 0


Вы не можете начинать темы
Вы не можете отвечать на сообщения
Вы не можете редактировать свои сообщения
Вы не можете удалять свои сообщения
Вы не можете голосовать в опросах
Вы не можете прикреплять файлы к сообщениям
Вы не можете скачивать файлы

!ВНИМАНИЕ!
Сайт не предоставляет электронные версии произведений, а занимается лишь коллекционированием и каталогизацией ссылок, присылаемых и публикуемых на форуме нашими читателями. Если вы являетесь правообладателем какого-либо представленного материала и не желаете, чтобы ссылка на него находилась в нашем каталоге, свяжитесь с нами, и мы незамедлительно удалим ее. Файлы для обмена на трекере предоставлены пользователями сайта, и администрация не несет ответственности за их содержание. Просьба не заливать файлы, защищенные авторскими правами, а также файлы нелегального содержания!