Важное объявление!
У Нас Все раздачи мультитрекерные, при нуле пиров в релизах, можете смело вставать на закачку!
 
Автор Сообщение

HUNTER

Стаж:
4 года 4 месяца
Сообщений:
56733

Репутация: 101

[+] [-]
Вне форума [Профиль] [ЛС]

Discovery: Удивительный секс / Discovery: Strange Sex- -Страна: США
Жанр: документальный, познавательный, физиология, психология
Год выпуска: 2009
Продолжительность: 00:47:15
Перевод: Профессиональный (двухголосый закадровый)-Режиссер: Джонатан Группер / Jonathan Grupper-Описание:
Принято считать, что секс - это удовольствие. А представьте, что для кого-то это ночной кошмар. Современной науке известна масса подобных случаев: постоянное возбуждение у мужчин, непрекращающиеся оргазмы во время родов у женщин, - рассказы об этих случаях могут показаться вам смешными, но самим участникам событий вовсе не до смеха. Узнайте больше секретов этой стороны человеческой жизни, посмотрев программу «Удивительный секс».-Возраст: 16+-Качество: DVDRip
Формат: AVI
Видео кодек: XviD
Аудио кодек: AC3-Релиз оформлен группой: -Видео: 704x400 (1.76:1), 25 fps, XviD build 50 ~1868 kbps avg, 0.27 bit/pixel
Аудио: 48 kHz, AC3 Dolby Digital, 2/0 (L,R) ch, ~192 kbps
-MediaInfo
General
Complete name : F:\Discovery Удивительный секс Strange Sex DVDRip\Discovery Удивительный секс Strange Sex DVDRip.avi
Format : AVI
Format/Info : Audio Video Interleave
File size : 700 MiB
Duration : 47mn 15s
Overall bit rate : 2 071 Kbps
Writing application : VirtualDubMod 1.5.10.2 (build 2540/release)
Writing library : VirtualDubMod build 2540/release
Video
ID : 0
Format : MPEG-4 Visual
Format profile : Advanced Simple@L5
Format settings, BVOP : Yes
Format settings, QPel : No
Format settings, GMC : No warppoints
Format settings, Matrix : Custom
Codec ID : XVID
Codec ID/Hint : XviD
Duration : 47mn 15s
Bit rate : 1 869 Kbps
Width : 704 pixels
Height : 400 pixels
Display aspect ratio : 16:9
Frame rate : 25.000 fps
Color space : YUV
Chroma subsampling : 4:2:0
Bit depth : 8 bits
Scan type : Progressive
Bits/(Pixel*Frame) : 0.265
Stream size : 632 MiB (90%)
Writing library : XviD 1.2.1 (UTC 2008-12-04)
Audio
ID : 1
Format : AC-3
Format/Info : Audio Coding 3
Mode extension : CM (complete main)
Codec ID : 2000
Duration : 47mn 15s
Bit rate mode : Constant
Bit rate : 192 Kbps
Channel(s) : 2 channels
Channel positions : Front: L R
Sampling rate : 48.0 KHz
Bit depth : 16 bits
Stream size : 64.9 MiB (9%)
Alignment : Split accross interleaves
Interleave, duration : 40 ms (1.00 video frame)
Interleave, preload duration : 500 ms
СкриншотыКовры-Раздаю до первых 5-ти скачавших, на раздачи не возвращаюсь...-

_________________
Показать сообщения:    

Текущее время: Сегодня 22:05

Часовой пояс: GMT



Вы не можете начинать темы
Вы не можете отвечать на сообщения
Вы не можете редактировать свои сообщения
Вы не можете удалять свои сообщения
Вы не можете голосовать в опросах
Вы не можете прикреплять файлы к сообщениям
Вы не можете скачивать файлы