Важное объявление!
У Нас Все раздачи мультитрекерные, при нуле пиров в релизах, можете смело вставать на закачку!
 
Автор Сообщение

HUNTER

Стаж:
4 года 4 месяца
Сообщений:
56822

Репутация: 101

[+] [-]
Вне форума [Профиль] [ЛС]

Discovery: Без промаха (1 сезон: 3 серия из 6) / Gunslingers
Дата/Год выпуска: 2014
Страна: США, Discovery for American Heroes Channel (AHC)
Жанр: Документальный, вестерн, постановочный
Продолжительность: 1 х ~ 00:42:46
Перевод: Профессиональный (одноголосый)
Режиссер: Кристофер Кассел / Christopher Cassel
Телеканал: Discovery HD немецкого ТВ
Описание: Данный мини-сериал знакомит нас с яркими представителями преступного мира и теми самоотверженными героями, которые защищали закон на просторах Дикого Запада США. Узнаем что побудило их принять решения, от которых зависели не только их жизни но и жизни близких им людей. О жизни и удивительных историях, связанных с жизнью этих незаурядных людей, ставших легендами при жизни, расскажут нам писатели-историки и актёры американского кинематографа
Доп. информация: Авторство релиза - alf62


качество: HDTVRip
формат: AVI
Видео: 720x400 (1.80:1), 25 fps, DivX, ~ 1800 kbps avg, 0.25 bit/pixel
Аудио: 48 kHz, AC3 Dolby Digital, 2/0 (L,R) ch, ~192.00 kbps avg

Список выпусков/серий

01. Вендетта в Тумстоуне / The Tombstone Vendetta
Отважный американский солдат столкнулся с бессилием закона в городе Тумстоун. Он решил отомстил тем ковбоям, которые убили его братьев.
02. Билли Кид – призрак округа Линкольн / The Phantom of Lincoln County
Рассказ об одиночке, который объявил войну коррупции. Он решил бороться за справедливость и мстить за бесчестные поступки.
03. Джесси Джеймс – последний мятежник на Юге / The South's Last Rebel
С гражданской войной и конфедератами связана история этого мятежника, который в своё время твёрдо решил разбогатеть. Джесси Джеймса многие считают Робин Гудом нашего времен
04. Дикий Билл. Отличный стрелок и мишень / Marksman... Marked Man
Один человек стал живой легендой американского Запада, и многие задались целью добыть его голову.
05. Том Хорн — угрюмый бандит со Скалистых гор / The Old West's Angel of Death
В те времена, когда жизнь на Диком Западе стала налаживаться, Том Хорн боролся с теми, кто по старинке считал, что прав всегда сильнейший.
06. Джон Уэсли Хардин — тёмное сердце Техаса / The Dark Heart of Texas
Когда отшумела Гражданская война в Америке, один джентльмен удачи устроил крестовый поход против тех, кто осмелился встать между ним и свободой.

MediaInfo

Без.промаха.2014.DivX.HDTVRip.alf62\Без.промаха.(3.серия.из.6).Джесси.Джеймс.2014.DivX.HDTVRip.alf62.aviФормат : AVIФормат/Информация : Audio Video InterleaveРазмер файла : 612 МбайтПродолжительность : 42 м.Общий поток : 2002 Кбит/секПрограмма кодирования : VirtualDubMod 1.5.10.3 | www.virtualdub-fr.org || (build 2550/release)Библиотека кодирования : VirtualDubMod build 2550/release
ВидеоИдентификатор : 0Формат : MPEG-4 VisualПрофиль формата : Advanced Simple@L5Параметр BVOP формата : 2Параметр QPel формата : НетПараметр GMC формата : Без точки переходаПараметр матрицы формата : Default (H.263)Идентификатор кодека : DX50Идентификатор кодека/Подсказка : DivX 5Продолжительность : 42 м.Битрейт : 1800 Кбит/секШирина : 720 пикселейВысота : 400 пикселейСоотношение сторон : 16:9Частота кадров : 25,000 кадров/секЦветовое пространство : YUVСубдискретизация насыщенности : 4:2:0Битовая глубина : 8 битТип развёртки : ПрогрессивнаяМетод сжатия : С потерямиБит/(Пиксели*Кадры) : 0.250Размер потока : 550 Мбайт (90%)Библиотека кодирования : XviD 73
АудиоИдентификатор : 1Формат : AC-3Формат/Информация : Audio Coding 3Расширение режима : CM (complete main)Параметр Endianness формата : BigИдентификатор кодека : 2000Продолжительность : 42 м.Вид битрейта : ПостоянныйБитрейт : 192 Кбит/секКаналы : 2 каналаРасположение каналов : Front: L RЧастота : 48,0 КГцБитовая глубина : 16 битМетод сжатия : С потерямиРазмер потока : 58,7 Мбайт (10%)Выравнивание : Разделение по промежуткамПродолжительность промежутка : 40 мс. (1,00 видеокадр)Время предзагрузки промежутка : 500 мс.
Внимание! Раздача ведётся путём добавления новых серий

скрытый текст

Внимание! Раздача ведётся путём добавления новых серий; при каждом добавлении создаётся новый торрент. Чтобы начать докачку новой серии, пользователям необходимо сделать следующее:
• Остановить скачивание.
• Удалить старый торрент у себя из клиента (старые серии удалять не надо).
• Скачать новый торрент и запустить его у себя в клиенте вместо старого, при этом указать клиенту путь в старую папку куда и должно происходить скачивание новых серий.
Ваш клиент при этом должен произвести хеширование (проверку) старой папки (если не производит сам - помогите ему сделать это), и будет докачивать только те серии которых у вас ещё нет. Старые серии при этом не удаляются, а продолжают раздаваться!
Eсли вы уже удалили старые серии, то предотвратить повторную закачку старых серий можно, отжав галочку в соответсвующих местах при запуске нового торрента. По возможности, желательно не удалять старые серии как можно дольше чтобы релизёр не столько продолжал раздавать старые серии, а смог сконцентрироваться на новых.

Скриншоты



_________________
Показать сообщения:    

Текущее время: Сегодня 02:00

Часовой пояс: GMT



Вы не можете начинать темы
Вы не можете отвечать на сообщения
Вы не можете редактировать свои сообщения
Вы не можете удалять свои сообщения
Вы не можете голосовать в опросах
Вы не можете прикреплять файлы к сообщениям
Вы не можете скачивать файлы