Ивановский Торрент трекер
Яндекс.Погода
 

[Цитировать]
HUNTER

Discovery. Разрушители легенд (мифов) (все сезоны 2003-2015) / Discovery. Mythbusters
Дата/Год выпуска: 2003-2015
Страна: США
Жанр: Документальный, научно-познавательный, шоу
Продолжительность: 197:44:44
Перевод: Профессиональный (многоголосый закадровый)
Режиссер: Элис Дэллоу / Alice Dallow , Табита Лентл, Лорен Грэй Уильямс / Lauren Gray Williams
Телеканал: Discovery
Описание: Наша жизнь полна тайн и загадок. Множество мифов ,легенд и поверий пришли к нам из глубины веков и до наших дней остаются загадками.
Раскрыть секреты и тайны далёкого прошлого и настоящего берутся Адам Сэвидж и Джейм Хайнеман. Им предстоит доказывать и опровергать, искать ответы на вопросы, как всё обстоит в действительности. Увлекательные и познавательные путешествия предстанут перед телезрителями...
Сэмпл: https://yadi.sk/i/EyE22lcQttHDo
качество: SATRip
формат: AVI
Видео кодек: FMP4, XviD
Аудио: MP3

Список выпусков/серий

Разрушители легенд ( сезоны 2003-2015)
2003
001. Взрывающийся унитаз
002. Уничтожение сотового телефона
003. Бочка с кирпичами
004. Падение пенни
005. Похороненный заживо
006. Пирсинг притягивает молнии
007. Вонючая машина
008. Побег из Алькатраса
2004
009. Взрывная декомпрессия
010. Куриная пушка
011. Шаги, разрушающие мост
012. Гибель ''Титаника''
013. Похороненный в бетоне
014. Перепроверка
015. Аквалангист. Автомобильные штучки
016. Древний луч смерти
017. Смертельный лифт. Машина для левитации
018. Обмануть радар
019. Зыбучие пески - убийцы
020. Взрывающийся леденец
021. Спасительный пинг-понг
022. Подъемник-катапульта
023. Взрывающийся дом
024. Астронавт династии Мин
2005
025. Коричневая нота
026. Сальсовый побег
027. Взрывающийся биотуалет
028. Заразна ли зевота
029. Охлаждение упаковки пива
030. Беременность от пули
031. Разбить бокал
032. Реактивный ранец
033. Смертельная поза при авиакатастрофе
034. Пуленепробиваемая вода
035. Из рогатки за границу
036. Коробка салфеток - убийца
037. Парашют из аварийного трапа
038. Перепроверка
039. Китайская сигнализация
040. Ракета конфедератов
041. Мифы о водке
042. Ботинки с металлическим носком
043. Морская болезнь - лечить, или
2006
044. Бумажный самострел
045. Расщепленный самолет
046. Смертельные лучи Архимеда
047. Гелиевый мяч
048. Змей Франклина
049. Мобильный телефон в самолете
050. Выстрел в воздух
051. Повторное открытие мифов
052. Манипуляция сознанием
053. Взрывающиеся штаны
054. Преступления и расследования
055. Паровая пушка
056. Водоворот - убийца
057. Кока-кола и Ментос
058. Сокрушительный сабвуфер
059. Преступления и расследования 2
060. Машина для землетрясений
061. Смертельная соломинка
062. Смертельный трос
063. Ракета из баллона со сжатым воздухом
064. Еще перепроверка
065. Взрывающаяся зажигалка
066. Бетонный планер
067. Огнестрельный фольклор
068. Антигравитация
069. Семикилометровое падение
2007
070. История ''Гинденбурга''
071. Пиратские мифы
072. Машина под водой
073. Дорожные камеры
074. Мифы о собаках
075. Мифы возвращаются
076. Погасить огонь голосом
077. Фургон с птицами
078. Хождение по воде
079. Мифы Дикого Запада
080. Легенды о тягаче
081. Герой и граната
082. Снежные мифы
083. Бейсбольные мифы
084. Выбор зрителей
085. Бык и красная тряпка
086. Час супергероя
087. Эвлоюция мифов
088. Первопроходцы
089. Взрывающийся водонагреватель
090. Полномасштабная проверка
091. Застрелить рыбу в бочонке
092. Пираты 2
093. Паровой пулемет конфедератов
094. Час самолетов
2008
095. Джеймс Бонд, часть 1
096. Свинцовый аэростат
097. Самолет на транспортере
098. Джеймс Бонд, часть 2
099. Выбор зрителей 2
100. Мифы МакГайвера
101. Мифы Аляски
102. Неделя акул
103. Взрывающийся бифштекс
104. NASA на Луне
105. Видеоклипы
106. Две телефонные книги
107. Электрошоковый водомет
108. Слепой за рулем
109. Возвращение ниндзя
110. Алкогольные мифы
111. Перевернется ли мотоцикл
112. Восставший из мертвых
113. Идиомы
2009
114. Гонки на выживание
115. Мифы Аляски 2
116. Бананы и картошка
117. Возвращение YouTube
118. Плавание в сиропе
119. Взрывающийся бампер
120. Легенда о качелях
121. Термит против льда
122. Побег из тюрьмы
123. Крученая пуля
124. Кабриолет против дождя
125. Вышибание из носков
126. Час липкой ленты
127. Грязная машина против чистой
128. Масляное пламя
129. Ураган и дом
130. Врезался и сгорел
131. Эволюция легенд
132. Прыжок в помойку
133. Антацидный побег
134. Разоружить выстрелом
135. Невидимая грязь
136. Минимифы
2010
137. Пуля-бумеранг
138. Газировка убийца
139. Нырнуть чтобы выжить
140. Побег на шпионской машине
141. Удар бутылкой
142. Болевой порог
143. Под контролем телезрителей
144. Час липкой ленты 2
145. Скольжение с горки
146. Шокер-огнемет
147. Мифы о гриппе
148. Собачий вопрос
149. В погоне за ураганом
150. Холодные ноги
151. Сдернуть скатерть
152. Стреломет
153. Невероятные мини-легенды
154. Дизайн для заднего хода
155. Перевернутая машина под водой
156. Насекомые
157. Задание президента
158. Зеленый шершень
159. Операция ''Валькирия'
2011
160. Миссия невыполнима
161. Голубой лед
162. Бегом по воде
163. Коварные пузыри
164. Древняя торпеда
165. Надувательство паруса
166. Шпионская машина 2
167. Уклониться от пули
168. Разрушительный шиномонтаж.
169. Да будет свет
170. Бумажная броня
171. Байки и базуки
172. Маятник Ньютона
173. Пройтись по прямой
174. Самолет из скотча
175. Летающая гильотина
176. Канализационная катастрофа
177. Колесо фортуны
178. Бомба в туалете
2012
179. Остров липкой ленты
180. Огонь против льда
181. Квадратные колеса
182. Качающиеся пираты
183. Битва полов
184. Вождение на каблуках
185. Месть мифов
186. Отскок пули
187. Пузырьковая упаковка
188. Дилеммы на дуэли
189. Голливудские стрелки
190. Спасение с Титаника
191. Взрыв в окопе
192. Градовый кавардак
193. Ночь ужасов
194. Микс из мини-мифов
195. Химия пушечного ядра
196. Кулинарные мифы
2013
197. Ракетомобиль. Задание выполнено
198. Смертельный улов. Крабовый спецвыпуск
199. Выживание при землетрясении
200. Спецвыпуск IndyCar.
201. Битва полов - раунд 2
202. Водный мотокросс
203. Боковой удар грузовика
204. Скотч и скалолазание
205. Покраска взрывом
206. Во все тяжкие
207. Ходячие мертвецы
2014
208. Звёздные Войны
209. Мифы о самогоне
210. Голливудские авто-клише
211. Авто-хаос, Животные репелленты
212. Хотите повторить это домa
213. МИФссия невыполнима
214. Пулевые мифы
215. Сверхзвуковой шарик, Ледяная пушка
216. Голливудские взрывы
217. Мифы о домашних катастрофах
218. Рекламные мифы
219. Агрессия на дороге
220. Законы привлекательности
221. Мифы о пробках
222. Посадка в самолёт. Биопули
2015
223. Симпсоны
224. В поисках утраченных легенд
225. Команда-А
226. Видеоигры
227. Трансформеры
228. Дрифт в Сан-Франциск
229. Взрыв на воде
230. Полёт фантазии
231. Скрытая угроза
232. Опасное вождение
233. Стрелки-профи
234. Незаконченное дельце
235. Челюсти. Месть
236. Звёздные войны. Ответный удар
Пилот
A. Реактивное Шевроле
B. Бисквитная базука
C. Булочки с маком и тест на наркотики
Спецвыпуски
2004-1. Специальный рождественский выпус
2005-1. Бенефис Бастера
2005-2. Кто лучший разрушитель
2005-3. Вырезанное
2005-4. Шоппинг до упаду
2005-5. За кулисами
2005-6. Голливуд на проверке
2005-7. Челюсти
2006-1. Большой сборник киномифов
2006-2. Новогодние мифы
2008-1. Юные ученые
2008-2. Выбор зрителей
2010-1. 25 лучших моментов
2011-1. Самолетом, поездом и автомобилем
2011-2. Место, место, место
2011-3. Мокрый и дикий
2012-1. Разбор почты
2012-2. Взрывы от А до Я

Техданные и скриншоты

2003
Video: 704x480 (1.47:1), 25 fps, ~1716 kbps avg, 0.20 bit/pixel
Audio: 44.100 kHz, MPEG Layer 3, 2 ch, ~128.00 kbps avg

MediaInfo

Общее
Полное имя : H:\Видео\Документальные\Разрушители легенд (Все сезоны)\2003\001. Взрывающийся унитаз.avi
Формат : AVI
Формат/Информация : Audio Video Interleave
Размер файла : 629 Мбайт
Продолжительность : 47 м.
Общий поток : 1858 Кбит/сек
Программа кодирования : Lavf56.36.100
Видео
Идентификатор : 1
Формат : MPEG-4 Visual
Профиль формата : Simple@L1
Параметр BVOP формата : Нет
Параметр QPel формата : Нет
Параметр GMC формата : Без точки перехода
Параметр матрицы формата : Default (H.263)
Идентификатор кодека : FMP4
Продолжительность : 47 м.
Битрейт : 1717 Кбит/сек
Ширина : 704 пикселя
Высота : 480 пикселей
Соотношение сторон : 3:2
Частота кадров : 25,000 кадров/сек
Цветовое пространство : YUV
Субдискретизация насыщенности : 4:2:0
Битовая глубина : 8 бит
Тип развёртки : Прогрессивная
Метод сжатия : С потерями
Бит/(Пиксели*Кадры) : 0.203
Размер потока : 581 Мбайт (92%)
Библиотека кодирования : Lavc56.41.100
Аудио
Идентификатор : 0
Формат : MPEG Audio
Версия формата : Version 1
Профиль формата : Layer 3
Режим : Joint stereo
Расширение режима : MS Stereo
Идентификатор кодека : 55
Идентификатор кодека/Подсказка : MP3
Продолжительность : 47 м.
Вид битрейта : Постоянный
Битрейт : 128 Кбит/сек
Каналы : 2 канала
Частота : 44,1 КГц
Метод сжатия : С потерями
Размер потока : 43,3 Мбайт (7%)
Выравнивание : Соединение по промежуткам
Продолжительность промежутка : 40 мс. (1,00 видеокадр)

Скриншоты

2004

Video: 704x480 (1.47:1), 25 fps, ~1716 kbps avg, 0.20 bit/pixel
Audio: 44.100 kHz, MPEG Layer 3, 2 ch, ~128.00 kbps avg
MediaInfo
Общее
Полное имя : H:\Видео\Документальные\Разрушители легенд (Все сезоны)\2004\009. Взрывная декомпрессия.avi
Формат : AVI
Формат/Информация : Audio Video Interleave
Размер файла : 627 Мбайт
Продолжительность : 47 м.
Общий поток : 1857 Кбит/сек
Программа кодирования : Lavf56.36.100
Видео
Идентификатор : 1
Формат : MPEG-4 Visual
Профиль формата : Simple@L1
Параметр BVOP формата : Нет
Параметр QPel формата : Нет
Параметр GMC формата : Без точки перехода
Параметр матрицы формата : Default (H.263)
Идентификатор кодека : FMP4
Продолжительность : 47 м.
Битрейт : 1717 Кбит/сек
Ширина : 704 пикселя
Высота : 480 пикселей
Соотношение сторон : 3:2
Частота кадров : 25,000 кадров/сек
Цветовое пространство : YUV
Субдискретизация насыщенности : 4:2:0
Битовая глубина : 8 бит
Тип развёртки : Прогрессивная
Метод сжатия : С потерями
Бит/(Пиксели*Кадры) : 0.203
Размер потока : 580 Мбайт (92%)
Библиотека кодирования : Lavc56.41.100
Аудио
Идентификатор : 0
Формат : MPEG Audio
Версия формата : Version 1
Профиль формата : Layer 3
Режим : Joint stereo
Расширение режима : MS Stereo
Идентификатор кодека : 55
Идентификатор кодека/Подсказка : MP3
Продолжительность : 47 м.
Вид битрейта : Постоянный
Битрейт : 128 Кбит/сек
Каналы : 2 канала
Частота : 44,1 КГц
Метод сжатия : С потерями
Размер потока : 43,2 Мбайт (7%)
Выравнивание : Соединение по промежуткам
Продолжительность промежутка : 40 мс. (1,00 видеокадр)

Скриншоты

2005

Video: 704x480 (1.47:1), 25 fps, ~1716 kbps avg, 0.20 bit/pixel
Audio: 44.100 kHz, MPEG Layer 3, 2 ch, ~128.00 kbps avg
MediaInfo
Общее
Полное имя : H:\Видео\Документальные\Разрушители легенд (Все сезоны)\2005\025. Коричневая нота.avi
Формат : AVI
Формат/Информация : Audio Video Interleave
Размер файла : 627 Мбайт
Продолжительность : 47 м.
Общий поток : 1858 Кбит/сек
Программа кодирования : Lavf56.36.100
Видео
Идентификатор : 1
Формат : MPEG-4 Visual
Профиль формата : Simple@L1
Параметр BVOP формата : Нет
Параметр QPel формата : Нет
Параметр GMC формата : Без точки перехода
Параметр матрицы формата : Default (H.263)
Идентификатор кодека : FMP4
Продолжительность : 47 м.
Битрейт : 1717 Кбит/сек
Ширина : 704 пикселя
Высота : 480 пикселей
Соотношение сторон : 3:2
Частота кадров : 25,000 кадров/сек
Цветовое пространство : YUV
Субдискретизация насыщенности : 4:2:0
Битовая глубина : 8 бит
Тип развёртки : Прогрессивная
Метод сжатия : С потерями
Бит/(Пиксели*Кадры) : 0.203
Размер потока : 579 Мбайт (92%)
Библиотека кодирования : Lavc56.41.100
Аудио
Идентификатор : 0
Формат : MPEG Audio
Версия формата : Version 1
Профиль формата : Layer 3
Режим : Joint stereo
Расширение режима : MS Stereo
Идентификатор кодека : 55
Идентификатор кодека/Подсказка : MP3
Продолжительность : 47 м.
Вид битрейта : Постоянный
Битрейт : 128 Кбит/сек
Каналы : 2 канала
Частота : 44,1 КГц
Метод сжатия : С потерями
Размер потока : 43,2 Мбайт (7%)
Выравнивание : Соединение по промежуткам
Продолжительность промежутка : 40 мс. (1,00 видеокадр)
Библиотека кодирования : LAME3.99.5

Скриншоты

2006

Video: 704x480 (1.47:1), 25 fps, ~1717 kbps avg, 0.20 bit/pixel
Audio: 44.100 kHz, MPEG Layer 3, 2 ch, ~128.00 kbps avg
MediaInfo
Общее
Полное имя : H:\Видео\Документальные\Разрушители легенд (Все сезоны)\2006\044. Бумажный самострел.avi
Формат : AVI
Формат/Информация : Audio Video Interleave
Размер файла : 563 Мбайт
Продолжительность : 42 м.
Общий поток : 1858 Кбит/сек
Программа кодирования : Lavf56.36.100
Видео
Идентификатор : 1
Формат : MPEG-4 Visual
Профиль формата : Simple@L1
Параметр BVOP формата : Нет
Параметр QPel формата : Нет
Параметр GMC формата : Без точки перехода
Параметр матрицы формата : Default (H.263)
Идентификатор кодека : FMP4
Продолжительность : 42 м.
Битрейт : 1718 Кбит/сек
Ширина : 704 пикселя
Высота : 480 пикселей
Соотношение сторон : 3:2
Частота кадров : 25,000 кадров/сек
Цветовое пространство : YUV
Субдискретизация насыщенности : 4:2:0
Битовая глубина : 8 бит
Тип развёртки : Прогрессивная
Метод сжатия : С потерями
Бит/(Пиксели*Кадры) : 0.203
Размер потока : 520 Мбайт (92%)
Библиотека кодирования : Lavc56.41.100
Аудио
Идентификатор : 0
Формат : MPEG Audio
Версия формата : Version 1
Профиль формата : Layer 3
Режим : Joint stereo
Расширение режима : MS Stereo
Идентификатор кодека : 55
Идентификатор кодека/Подсказка : MP3
Продолжительность : 42 м.
Вид битрейта : Постоянный
Битрейт : 128 Кбит/сек
Каналы : 2 канала
Частота : 44,1 КГц
Метод сжатия : С потерями
Размер потока : 38,8 Мбайт (7%)
Выравнивание : Соединение по промежуткам
Продолжительность промежутка : 40 мс. (1,00 видеокадр)

Скриншоты

2007

Video: 720x400 (1.80:1), 25 fps, ~1494 kbps avg, 0.21 bit/pixel
Audio: 48 kHz, MPEG Layer 3, 2 ch, ~128.00 kbps avg
Video2: 704x480 (1.47:1), 25 fps, ~1714 kbps avg, 0.20 bit/pixel
Audio2: 44.100 kHz, MPEG Layer 3, 2 ch, ~128.00 kbps avg
MediaInfo
Общее
Полное имя : H:\Видео\Документальные\Разрушители легенд (Все сезоны)\2007\070. История ''Гинденбурга''.avi
Формат : AVI
Формат/Информация : Audio Video Interleave
Размер файла : 528 Мбайт
Продолжительность : 45 м.
Общий поток : 1636 Кбит/сек
Программа кодирования : Lavf56.36.100
Видео
Идентификатор : 1
Формат : MPEG-4 Visual
Профиль формата : Simple@L1
Параметр BVOP формата : Нет
Параметр QPel формата : Нет
Параметр GMC формата : Без точки перехода
Параметр матрицы формата : Default (H.263)
Идентификатор кодека : FMP4
Продолжительность : 45 м.
Битрейт : 1495 Кбит/сек
Ширина : 720 пикселей
Высота : 400 пикселей
Соотношение сторон : 16:9
Частота кадров : 25,000 кадров/сек
Цветовое пространство : YUV
Субдискретизация насыщенности : 4:2:0
Битовая глубина : 8 бит
Тип развёртки : Прогрессивная
Метод сжатия : С потерями
Бит/(Пиксели*Кадры) : 0.208
Размер потока : 482 Мбайт (91%)
Библиотека кодирования : Lavc56.41.100
Аудио
Идентификатор : 0
Формат : MPEG Audio
Версия формата : Version 1
Профиль формата : Layer 3
Режим : Joint stereo
Расширение режима : MS Stereo
Идентификатор кодека : 55
Идентификатор кодека/Подсказка : MP3
Продолжительность : 45 м.
Вид битрейта : Постоянный
Битрейт : 128 Кбит/сек
Каналы : 2 канала
Частота : 48,0 КГц
Метод сжатия : С потерями
Размер потока : 41,3 Мбайт (8%)
Выравнивание : Соединение по промежуткам
Продолжительность промежутка : 40 мс. (1,00 видеокадр)
----------------------------------------------------------------------------
Общее
Полное имя : H:\Видео\Документальные\Разрушители легенд (Все сезоны)\2007\077. Фургон с птицами.avi
Формат : AVI
Формат/Информация : Audio Video Interleave
Размер файла : 600 Мбайт
Продолжительность : 45 м.
Общий поток : 1856 Кбит/сек
Программа кодирования : Lavf56.36.100
Видео
Идентификатор : 1
Формат : MPEG-4 Visual
Профиль формата : Simple@L1
Параметр BVOP формата : Нет
Параметр QPel формата : Нет
Параметр GMC формата : Без точки перехода
Параметр матрицы формата : Default (H.263)
Идентификатор кодека : FMP4
Продолжительность : 45 м.
Битрейт : 1715 Кбит/сек
Ширина : 704 пикселя
Высота : 480 пикселей
Соотношение сторон : 3:2
Частота кадров : 25,000 кадров/сек
Цветовое пространство : YUV
Субдискретизация насыщенности : 4:2:0
Битовая глубина : 8 бит
Тип развёртки : Прогрессивная
Метод сжатия : С потерями
Бит/(Пиксели*Кадры) : 0.203
Размер потока : 555 Мбайт (92%)
Библиотека кодирования : Lavc56.41.100
Аудио
Идентификатор : 0
Формат : MPEG Audio
Версия формата : Version 1
Профиль формата : Layer 3
Режим : Joint stereo
Расширение режима : MS Stereo
Идентификатор кодека : 55
Идентификатор кодека/Подсказка : MP3
Продолжительность : 45 м.
Вид битрейта : Постоянный
Битрейт : 128 Кбит/сек
Каналы : 2 канала
Частота : 44,1 КГц
Метод сжатия : С потерями
Размер потока : 41,4 Мбайт (7%)
Выравнивание : Соединение по промежуткам
Продолжительность промежутка : 40 мс. (1,00 видеокадр)

Скриншоты


2008

Video: 720x400 (1.80:1), 25 fps, ~1493 kbps avg, 0.21 bit/pixel
Audio: 48 kHz, MPEG Layer 3, 2 ch, ~128.00 kbps avg
MediaInfo
Общее
Полное имя : H:\Видео\Документальные\Разрушители легенд (Все сезоны)\2008\095. Джеймс Бонд, часть 1.avi
Формат : AVI
Формат/Информация : Audio Video Interleave
Размер файла : 527 Мбайт
Продолжительность : 45 м.
Общий поток : 1635 Кбит/сек
Программа кодирования : Lavf56.36.100
Видео
Идентификатор : 1
Формат : MPEG-4 Visual
Профиль формата : Simple@L1
Параметр BVOP формата : Нет
Параметр QPel формата : Нет
Параметр GMC формата : Без точки перехода
Параметр матрицы формата : Default (H.263)
Идентификатор кодека : FMP4
Продолжительность : 45 м.
Битрейт : 1495 Кбит/сек
Ширина : 720 пикселей
Высота : 400 пикселей
Соотношение сторон : 16:9
Частота кадров : 25,000 кадров/сек
Цветовое пространство : YUV
Субдискретизация насыщенности : 4:2:0
Битовая глубина : 8 бит
Тип развёртки : Прогрессивная
Метод сжатия : С потерями
Бит/(Пиксели*Кадры) : 0.208
Размер потока : 482 Мбайт (91%)
Библиотека кодирования : Lavc56.41.100
Аудио
Идентификатор : 0
Формат : MPEG Audio
Версия формата : Version 1
Профиль формата : Layer 3
Режим : Joint stereo
Расширение режима : MS Stereo
Идентификатор кодека : 55
Идентификатор кодека/Подсказка : MP3
Продолжительность : 45 м.
Вид битрейта : Постоянный
Битрейт : 128 Кбит/сек
Каналы : 2 канала
Частота : 48,0 КГц
Метод сжатия : С потерями
Размер потока : 41,3 Мбайт (8%)
Выравнивание : Соединение по промежуткам
Продолжительность промежутка : 40 мс. (1,00 видеокадр)
Библиотека кодирования : LAME3.99.5

Скриншоты

2009

Video: 720x400 (1.80:1), 25 fps, ~1497 kbps avg, 0.21 bit/pixel
Audio: 48 kHz, MPEG Layer 3, 2 ch, ~128.00 kbps avg
MediaInfo
Общее
Полное имя : H:\Видео\Документальные\Разрушители легенд (Все сезоны)\2009\121. Термит против льда.avi
Формат : AVI
Формат/Информация : Audio Video Interleave
Размер файла : 516 Мбайт
Продолжительность : 44 м.
Общий поток : 1638 Кбит/сек
Программа кодирования : Lavf56.36.100
Видео
Идентификатор : 1
Формат : MPEG-4 Visual
Профиль формата : Simple@L1
Параметр BVOP формата : Нет
Параметр QPel формата : Нет
Параметр GMC формата : Без точки перехода
Параметр матрицы формата : Default (H.263)
Идентификатор кодека : FMP4
Продолжительность : 44 м.
Битрейт : 1497 Кбит/сек
Ширина : 720 пикселей
Высота : 400 пикселей
Соотношение сторон : 16:9
Частота кадров : 25,000 кадров/сек
Цветовое пространство : YUV
Субдискретизация насыщенности : 4:2:0
Битовая глубина : 8 бит
Тип развёртки : Прогрессивная
Метод сжатия : С потерями
Бит/(Пиксели*Кадры) : 0.208
Размер потока : 472 Мбайт (91%)
Библиотека кодирования : Lavc56.41.100
Аудио
Идентификатор : 0
Формат : MPEG Audio
Версия формата : Version 1
Профиль формата : Layer 3
Режим : Joint stereo
Расширение режима : MS Stereo
Идентификатор кодека : 55
Идентификатор кодека/Подсказка : MP3
Продолжительность : 44 м.
Вид битрейта : Постоянный
Битрейт : 128 Кбит/сек
Каналы : 2 канала
Частота : 48,0 КГц
Метод сжатия : С потерями
Размер потока : 40,3 Мбайт (8%)
Выравнивание : Соединение по промежуткам
Продолжительность промежутка : 40 мс. (1,00 видеокадр)
Библиотека кодирования : LAME3.99.5

Скриншоты

2010

Video: 720x400 (1.80:1), 29 fps, ~1496 kbps avg, 0.18 bit/pixel
Audio: 48 kHz, MPEG Layer 3, 2 ch, ~128.00 kbps avg
MediaInfo
Общее
Полное имя : H:\Видео\Документальные\Разрушители легенд (Все сезоны)\2010\137. Пуля-бумеранг.avi
Формат : AVI
Формат/Информация : Audio Video Interleave
Размер файла : 516 Мбайт
Продолжительность : 43 м.
Общий поток : 1640 Кбит/сек
Программа кодирования : Lavf56.36.100
Видео
Идентификатор : 1
Формат : MPEG-4 Visual
Профиль формата : Simple@L1
Параметр BVOP формата : Нет
Параметр QPel формата : Нет
Параметр GMC формата : Без точки перехода
Параметр матрицы формата : Default (H.263)
Идентификатор кодека : FMP4
Продолжительность : 43 м.
Битрейт : 1499 Кбит/сек
Ширина : 720 пикселей
Высота : 400 пикселей
Соотношение сторон : 16:9
Частота кадров : 25,000 кадров/сек
Цветовое пространство : YUV
Субдискретизация насыщенности : 4:2:0
Битовая глубина : 8 бит
Тип развёртки : Прогрессивная
Метод сжатия : С потерями
Бит/(Пиксели*Кадры) : 0.208
Размер потока : 472 Мбайт (91%)
Библиотека кодирования : Lavc56.41.100
Аудио
Идентификатор : 0
Формат : MPEG Audio
Версия формата : Version 1
Профиль формата : Layer 3
Режим : Joint stereo
Расширение режима : MS Stereo
Идентификатор кодека : 55
Идентификатор кодека/Подсказка : MP3
Продолжительность : 43 м.
Вид битрейта : Постоянный
Битрейт : 128 Кбит/сек
Каналы : 2 канала
Частота : 48,0 КГц
Метод сжатия : С потерями
Размер потока : 40,3 Мбайт (8%)
Выравнивание : Соединение по промежуткам
Продолжительность промежутка : 40 мс. (1,00 видеокадр)
Библиотека кодирования : LAME3.99.5

Скриншоты

2011

Video: 720x400 (1.80:1), 25 fps, ~1497 kbps avg, 0.21 bit/pixel
Audio: 48 kHz, MPEG Layer 3, 2 ch, ~128.00 kbps avg
MediaInfo
Общее
Полное имя : H:\Видео\Документальные\Разрушители легенд (Все сезоны)\2011\160. Миссия невыполнима.avi
Формат : AVI
Формат/Информация : Audio Video Interleave
Размер файла : 517 Мбайт
Продолжительность : 44 м.
Общий поток : 1639 Кбит/сек
Название фильма : Avidemux
Программа кодирования : Lavf56.36.100
Видео
Идентификатор : 1
Формат : MPEG-4 Visual
Профиль формата : Simple@L1
Параметр BVOP формата : Нет
Параметр QPel формата : Нет
Параметр GMC формата : Без точки перехода
Параметр матрицы формата : Default (H.263)
Идентификатор кодека : FMP4
Продолжительность : 44 м.
Битрейт : 1498 Кбит/сек
Ширина : 720 пикселей
Высота : 400 пикселей
Соотношение сторон : 16:9
Частота кадров : 25,000 кадров/сек
Цветовое пространство : YUV
Субдискретизация насыщенности : 4:2:0
Битовая глубина : 8 бит
Тип развёртки : Прогрессивная
Метод сжатия : С потерями
Бит/(Пиксели*Кадры) : 0.208
Размер потока : 473 Мбайт (91%)
Библиотека кодирования : Lavc56.41.100
Аудио
Идентификатор : 0
Формат : MPEG Audio
Версия формата : Version 1
Профиль формата : Layer 3
Режим : Joint stereo
Расширение режима : MS Stereo
Идентификатор кодека : 55
Идентификатор кодека/Подсказка : MP3
Продолжительность : 44 м.
Вид битрейта : Постоянный
Битрейт : 128 Кбит/сек
Каналы : 2 канала
Частота : 48,0 КГц
Метод сжатия : С потерями
Размер потока : 40,4 Мбайт (8%)
Выравнивание : Соединение по промежуткам
Продолжительность промежутка : 40 мс. (1,00 видеокадр)
Библиотека кодирования : LAME3.99.5

Скриншоты

2012

Video: 720x400 (1.80:1), 25 fps, ~1496 kbps avg, 0.21 bit/pixel
Audio: 48 kHz, MPEG Layer 3, 2 ch, ~128.00 kbps avg
MediaInfo
Общее
Полное имя : H:\Видео\Документальные\Разрушители легенд (Все сезоны)\2012\179. Остров липкой ленты.avi
Формат : AVI
Формат/Информация : Audio Video Interleave
Размер файла : 510 Мбайт
Продолжительность : 43 м.
Общий поток : 1638 Кбит/сек
Программа кодирования : Lavf56.36.100
Видео
Идентификатор : 1
Формат : MPEG-4 Visual
Профиль формата : Simple@L1
Параметр BVOP формата : Нет
Параметр QPel формата : Нет
Параметр GMC формата : Без точки перехода
Параметр матрицы формата : Default (H.263)
Идентификатор кодека : FMP4
Продолжительность : 43 м.
Битрейт : 1497 Кбит/сек
Ширина : 720 пикселей
Высота : 400 пикселей
Соотношение сторон : 16:9
Частота кадров : 25,000 кадров/сек
Цветовое пространство : YUV
Субдискретизация насыщенности : 4:2:0
Битовая глубина : 8 бит
Тип развёртки : Прогрессивная
Метод сжатия : С потерями
Бит/(Пиксели*Кадры) : 0.208
Размер потока : 466 Мбайт (91%)
Библиотека кодирования : Lavc56.41.100
Аудио
Идентификатор : 0
Формат : MPEG Audio
Версия формата : Version 1
Профиль формата : Layer 3
Режим : Joint stereo
Расширение режима : MS Stereo
Идентификатор кодека : 55
Идентификатор кодека/Подсказка : MP3
Продолжительность : 43 м.
Вид битрейта : Постоянный
Битрейт : 128 Кбит/сек
Каналы : 2 канала
Частота : 48,0 КГц
Метод сжатия : С потерями
Размер потока : 39,9 Мбайт (8%)
Выравнивание : Соединение по промежуткам
Продолжительность промежутка : 40 мс. (1,00 видеокадр)
Библиотека кодирования : LAME3.99.5

Скриншоты

2013

Video: 720x400 (1.80:1), 25 fps, ~1495 kbps avg, 0.21 bit/pixel
Audio: 48 kHz, MPEG Layer 3, 2 ch, ~128.00 kbps avg
MediaInfo
Общее
Полное имя : H:\Видео\Документальные\Разрушители легенд (Все сезоны)\2013\197. Ракетомобиль. Задание выполнено.avi
Формат : AVI
Формат/Информация : Audio Video Interleave
Размер файла : 512 Мбайт
Продолжительность : 43 м.
Общий поток : 1637 Кбит/сек
Программа кодирования : Lavf56.36.100
Видео
Идентификатор : 1
Формат : MPEG-4 Visual
Профиль формата : Simple@L1
Параметр BVOP формата : Нет
Параметр QPel формата : Нет
Параметр GMC формата : Без точки перехода
Параметр матрицы формата : Default (H.263)
Идентификатор кодека : FMP4
Продолжительность : 43 м.
Битрейт : 1496 Кбит/сек
Ширина : 720 пикселей
Высота : 400 пикселей
Соотношение сторон : 16:9
Частота кадров : 25,000 кадров/сек
Цветовое пространство : YUV
Субдискретизация насыщенности : 4:2:0
Битовая глубина : 8 бит
Тип развёртки : Прогрессивная
Метод сжатия : С потерями
Бит/(Пиксели*Кадры) : 0.208
Размер потока : 468 Мбайт (91%)
Библиотека кодирования : Lavc56.41.100
Аудио
Идентификатор : 0
Формат : MPEG Audio
Версия формата : Version 1
Профиль формата : Layer 3
Режим : Joint stereo
Расширение режима : MS Stereo
Идентификатор кодека : 55
Идентификатор кодека/Подсказка : MP3
Продолжительность : 43 м.
Вид битрейта : Постоянный
Битрейт : 128 Кбит/сек
Каналы : 2 канала
Частота : 48,0 КГц
Метод сжатия : С потерями
Размер потока : 40,0 Мбайт (8%)
Выравнивание : Соединение по промежуткам
Продолжительность промежутка : 40 мс. (1,00 видеокадр)

Скриншоты

2014

Video: 720x400 (1.80:1), 25 fps, ~1495 kbps avg, 0.21 bit/pixel
Audio: 48 kHz, MPEG Layer 3, 2 ch, ~128.00 kbps avg
MediaInfo
Общее
Полное имя : H:\Видео\Документальные\Разрушители легенд (Все сезоны)\2014\209. Мифы о самогоне.avi
Формат : AVI
Формат/Информация : Audio Video Interleave
Размер файла : 514 Мбайт
Продолжительность : 43 м.
Общий поток : 1635 Кбит/сек
Программа кодирования : Lavf56.36.100
Видео
Идентификатор : 1
Формат : MPEG-4 Visual
Профиль формата : Simple@L1
Параметр BVOP формата : Нет
Параметр QPel формата : Нет
Параметр GMC формата : Без точки перехода
Параметр матрицы формата : Default (H.263)
Идентификатор кодека : FMP4
Продолжительность : 43 м.
Битрейт : 1494 Кбит/сек
Ширина : 720 пикселей
Высота : 400 пикселей
Соотношение сторон : 16:9
Частота кадров : 25,000 кадров/сек
Цветовое пространство : YUV
Субдискретизация насыщенности : 4:2:0
Битовая глубина : 8 бит
Тип развёртки : Прогрессивная
Метод сжатия : С потерями
Бит/(Пиксели*Кадры) : 0.207
Размер потока : 470 Мбайт (91%)
Библиотека кодирования : Lavc56.41.100
Аудио
Идентификатор : 0
Формат : MPEG Audio
Версия формата : Version 1
Профиль формата : Layer 3
Режим : Joint stereo
Расширение режима : MS Stereo
Идентификатор кодека : 55
Идентификатор кодека/Подсказка : MP3
Продолжительность : 43 м.
Вид битрейта : Постоянный
Битрейт : 128 Кбит/сек
Каналы : 2 канала
Частота : 48,0 КГц
Метод сжатия : С потерями
Размер потока : 40,2 Мбайт (8%)
Выравнивание : Соединение по промежуткам
Продолжительность промежутка : 40 мс. (1,00 видеокадр)

Скриншоты

2015

Video: 720x400 (1.80:1), 25 fps, XviD build 50 ~1785 kbps avg, 0.25 bit/pixel
Audio: 44.100 kHz, MPEG Layer 3, 2 ch, ~128.00 kbps avg
MediaInfo
Общее
Полное имя : H:\Видео\Документальные\Разрушители легенд (Все сезоны)\2015\230. Полёт фантазии.avi
Формат : AVI
Формат/Информация : Audio Video Interleave
Размер файла : 492 Мбайт
Продолжительность : 43 м.
Общий поток : 1565 Кбит/сек
Программа кодирования : VirtualDubMod 1.5.10.2 (build 2540/release)
Библиотека кодирования : VirtualDubMod build 2540/release
Видео
Идентификатор : 0
Формат : MPEG-4 Visual
Профиль формата : Advanced Simple@L5
Параметр BVOP формата : 1
Параметр QPel формата : Нет
Параметр GMC формата : Без точки перехода
Параметр матрицы формата : Default (H.263)
Идентификатор кодека : XVID
Идентификатор кодека/Подсказка : XviD
Продолжительность : 43 м.
Битрейт : 1427 Кбит/сек
Ширина : 720 пикселей
Высота : 400 пикселей
Соотношение сторон : 16:9
Частота кадров : 25,000 кадров/сек
Цветовое пространство : YUV
Субдискретизация насыщенности : 4:2:0
Битовая глубина : 8 бит
Тип развёртки : Прогрессивная
Метод сжатия : С потерями
Бит/(Пиксели*Кадры) : 0.198
Размер потока : 449 Мбайт (91%)
Библиотека кодирования : XviD 1.2.1 (UTC 2008-12-04)
Аудио
Идентификатор : 1
Формат : MPEG Audio
Версия формата : Version 1
Профиль формата : Layer 3
Идентификатор кодека : 55
Идентификатор кодека/Подсказка : MP3
Продолжительность : 43 м.
Вид битрейта : Постоянный
Битрейт : 128 Кбит/сек
Каналы : 2 канала
Частота : 44,1 КГц
Метод сжатия : С потерями
Размер потока : 40,3 Мбайт (8%)
Выравнивание : Разделение по промежуткам
Продолжительность промежутка : 40 мс. (1,00 видеокадр)
Время предзагрузки промежутка : 500 мс.
Библиотека кодирования : LAME3.98r
Настройки программы : -m s -V 4 -q 2 -lowpass 17 -b 128

Скриншоты

Пилот

Video: 704x480 (1.47:1), 25 fps, ~1715 kbps avg, 0.20 bit/pixel
Audio: 44.100 kHz, MPEG Layer 3, 2 ch, ~128.00 kbps avg
MediaInfo
Общее
Полное имя : H:\Видео\Документальные\Разрушители легенд (Все сезоны)\Пилот\A. Реактивное Шевроле.avi
Формат : AVI
Формат/Информация : Audio Video Interleave
Размер файла : 625 Мбайт
Продолжительность : 47 м.
Общий поток : 1857 Кбит/сек
Программа кодирования : Lavf56.36.100
Видео
Идентификатор : 1
Формат : MPEG-4 Visual
Профиль формата : Simple@L1
Параметр BVOP формата : Нет
Параметр QPel формата : Нет
Параметр GMC формата : Без точки перехода
Параметр матрицы формата : Default (H.263)
Идентификатор кодека : FMP4
Продолжительность : 47 м.
Битрейт : 1716 Кбит/сек
Ширина : 704 пикселя
Высота : 480 пикселей
Соотношение сторон : 3:2
Частота кадров : 25,000 кадров/сек
Цветовое пространство : YUV
Субдискретизация насыщенности : 4:2:0
Битовая глубина : 8 бит
Тип развёртки : Прогрессивная
Метод сжатия : С потерями
Бит/(Пиксели*Кадры) : 0.203
Размер потока : 578 Мбайт (92%)
Библиотека кодирования : Lavc56.41.100
Аудио
Идентификатор : 0
Формат : MPEG Audio
Версия формата : Version 1
Профиль формата : Layer 3
Режим : Joint stereo
Расширение режима : MS Stereo
Идентификатор кодека : 55
Идентификатор кодека/Подсказка : MP3
Продолжительность : 47 м.
Вид битрейта : Постоянный
Битрейт : 128 Кбит/сек
Каналы : 2 канала
Частота : 44,1 КГц
Метод сжатия : С потерями
Размер потока : 43,1 Мбайт (7%)
Выравнивание : Соединение по промежуткам
Продолжительность промежутка : 40 мс. (1,00 видеокадр)

Скриншоты

Спецвыпуски

Video: 720x456 (1.58:1), 25 fps, ~1672 kbps avg, 0.20 bit/pixel
Audio: 44.100 kHz, MPEG Layer 3, 2 ch, ~128.00 kbps avg
Video2: 720x480 (1.50:1), 25 fps, ~1749 kbps avg, 0.20 bit/pixel
Audio2: 44.100 kHz, MPEG Layer 3, 2 ch, ~128.00 kbps avg
Video3: 720x400 (1.80:1), 29 fps, ~1496 kbps avg, 0.18 bit/pixel
Audio3: 48 kHz, MPEG Layer 3, 2 ch, ~128.00 kbps avg
MediaInfo
Общее
Полное имя : H:\Видео\Документальные\Разрушители легенд (Все сезоны)\Спецвыпуски\2004-1. Специальный рождественский выпуск.avi
Формат : AVI
Формат/Информация : Audio Video Interleave
Размер файла : 608 Мбайт
Продолжительность : 46 м.
Общий поток : 1813 Кбит/сек
Программа кодирования : Lavf56.36.100
Видео
Идентификатор : 1
Формат : MPEG-4 Visual
Профиль формата : Simple@L1
Параметр BVOP формата : Нет
Параметр QPel формата : Нет
Параметр GMC формата : Без точки перехода
Параметр матрицы формата : Default (H.263)
Идентификатор кодека : FMP4
Продолжительность : 46 м.
Битрейт : 1673 Кбит/сек
Ширина : 720 пикселей
Высота : 456 пикселей
Соотношение сторон : 16:10
Частота кадров : 25,000 кадров/сек
Цветовое пространство : YUV
Субдискретизация насыщенности : 4:2:0
Битовая глубина : 8 бит
Тип развёртки : Прогрессивная
Метод сжатия : С потерями
Бит/(Пиксели*Кадры) : 0.204
Размер потока : 561 Мбайт (92%)
Библиотека кодирования : Lavc56.41.100
Аудио
Идентификатор : 0
Формат : MPEG Audio
Версия формата : Version 1
Профиль формата : Layer 3
Режим : Joint stereo
Расширение режима : MS Stereo
Идентификатор кодека : 55
Идентификатор кодека/Подсказка : MP3
Продолжительность : 46 м.
Вид битрейта : Постоянный
Битрейт : 128 Кбит/сек
Каналы : 2 канала
Частота : 44,1 КГц
Метод сжатия : С потерями
Размер потока : 42,9 Мбайт (7%)
Выравнивание : Соединение по промежуткам
Продолжительность промежутка : 40 мс. (1,00 видеокадр)
-------------------------------------------------------------------
Общее
Полное имя : H:\Видео\Документальные\Разрушители легенд (Все сезоны)\Спецвыпуски\2005-3. Вырезанное.avi
Формат : AVI
Формат/Информация : Audio Video Interleave
Размер файла : 623 Мбайт
Продолжительность : 46 м.
Общий поток : 1890 Кбит/сек
Программа кодирования : Lavf56.36.100
Видео
Идентификатор : 1
Формат : MPEG-4 Visual
Профиль формата : Simple@L1
Параметр BVOP формата : Нет
Параметр QPel формата : Нет
Параметр GMC формата : Без точки перехода
Параметр матрицы формата : Default (H.263)
Идентификатор кодека : FMP4
Продолжительность : 46 м.
Битрейт : 1750 Кбит/сек
Ширина : 720 пикселей
Высота : 480 пикселей
Соотношение сторон : 3:2
Частота кадров : 25,000 кадров/сек
Цветовое пространство : YUV
Субдискретизация насыщенности : 4:2:0
Битовая глубина : 8 бит
Тип развёртки : Прогрессивная
Метод сжатия : С потерями
Бит/(Пиксели*Кадры) : 0.203
Размер потока : 577 Мбайт (93%)
Библиотека кодирования : Lavc56.41.100
Аудио
Идентификатор : 0
Формат : MPEG Audio
Версия формата : Version 1
Профиль формата : Layer 3
Режим : Joint stereo
Расширение режима : MS Stereo
Идентификатор кодека : 55
Идентификатор кодека/Подсказка : MP3
Продолжительность : 46 м.
Вид битрейта : Постоянный
Битрейт : 128 Кбит/сек
Каналы : 2 канала
Частота : 44,1 КГц
Метод сжатия : С потерями
Размер потока : 42,2 Мбайт (7%)
Выравнивание : Соединение по промежуткам
Продолжительность промежутка : 40 мс. (1,00 видеокадр)
Библиотека кодирования : LAME3.99.5UU№%©¶хњ
-------------------------------------------------------------------------------
Общее
Полное имя : H:\Видео\Документальные\Разрушители легенд (Все сезоны)\Спецвыпуски\2012-2. Взрывы от А до Я.avi
Формат : AVI
Формат/Информация : Audio Video Interleave
Размер файла : 514 Мбайт
Продолжительность : 43 м.
Общий поток : 1639 Кбит/сек
Программа кодирования : Lavf56.36.100
Видео
Идентификатор : 1
Формат : MPEG-4 Visual
Профиль формата : Simple@L1
Параметр BVOP формата : Нет
Параметр QPel формата : Нет
Параметр GMC формата : Без точки перехода
Параметр матрицы формата : Default (H.263)
Идентификатор кодека : FMP4
Продолжительность : 43 м.
Битрейт : 1498 Кбит/сек
Ширина : 720 пикселей
Высота : 400 пикселей
Соотношение сторон : 16:9
Частота кадров : 25,000 кадров/сек
Цветовое пространство : YUV
Субдискретизация насыщенности : 4:2:0
Битовая глубина : 8 бит
Тип развёртки : Прогрессивная
Метод сжатия : С потерями
Бит/(Пиксели*Кадры) : 0.208
Размер потока : 470 Мбайт (91%)
Библиотека кодирования : Lavc56.41.100
Аудио
Идентификатор : 0
Формат : MPEG Audio
Версия формата : Version 1
Профиль формата : Layer 3
Режим : Joint stereo
Расширение режима : MS Stereo
Идентификатор кодека : 55
Идентификатор кодека/Подсказка : MP3
Продолжительность : 43 м.
Вид битрейта : Постоянный
Битрейт : 128 Кбит/сек
Каналы : 2 канала
Частота : 48,0 КГц
Метод сжатия : С потерями
Размер потока : 40,2 Мбайт (8%)
Выравнивание : Соединение по промежуткам
Продолжительность промежутка : 40 мс. (1,00 видеокадр)

Скриншоты



Показать сообщения:    

Текущее время: 21-Сен 14:35

Часовой пояс: UTC - 1


Вы не можете начинать темы
Вы не можете отвечать на сообщения
Вы не можете редактировать свои сообщения
Вы не можете удалять свои сообщения
Вы не можете голосовать в опросах
Вы не можете прикреплять файлы к сообщениям
Вы не можете скачивать файлы

!ВНИМАНИЕ!
Сайт не предоставляет электронные версии произведений, а занимается лишь коллекционированием и каталогизацией ссылок, присылаемых и публикуемых на форуме нашими читателями. Если вы являетесь правообладателем какого-либо представленного материала и не желаете, чтобы ссылка на него находилась в нашем каталоге, свяжитесь с нами, и мы незамедлительно удалим ее. Файлы для обмена на трекере предоставлены пользователями сайта, и администрация не несет ответственности за их содержание. Просьба не заливать файлы, защищенные авторскими правами, а также файлы нелегального содержания!