Важное объявление!
У Нас Все раздачи мультитрекерные, при нуле пиров в релизах, можете смело вставать на закачку!
 
Автор Сообщение

HUNTER

Стаж:
4 года 8 месяцев
Сообщений:
61985

Репутация: 101

[+] [-]
Вне форума [Профиль] [ЛС]

Discovery: Короли столярного дела / Discovery: Redwood Kings
Дата/Год выпуска: 2013
Страна: США
Жанр: Документальный, познавательный, строительство
Продолжительность: 00:45:00
Перевод: Профессиональный (дублированный)
Русские субтитры: нет
Оригинальная аудиодорожка: нет
Режиссер: Discovery
Телеканал: Discovery
Описание: В самом сердце Калифорнии братья-близнецы создают удивительные произведения из огромных переработанных кусков красного дерева.
качество: HDTVRip
формат: AVI
Видео: XviD, 720x400, 1520 kbps, 30 fps
Аудио: AC3, 2 ch, 192 kbps/c
Cэмпл

Список выпусков/серий

01 Короли столярного дела
02 Короли столярного дела

MediaInfo

ОбщееПолное имя : h:\Downloads\Torrent\Короли столярного дела\02 Короли столярного дела.aviФормат : AVIФормат/Информация : Audio Video InterleaveРазмер файла : 538 МбайтПродолжительность : 43 м.Общий поток : 1724 Кбит/секПрограмма кодирования : VirtualDubMod 1.5.10.3 | www.virtualdub-fr.org || (build 2550/release)Библиотека кодирования : VirtualDubMod build 2550/release
ВидеоИдентификатор : 0Формат : MPEG-4 VisualПрофиль формата : Advanced Simple@L5Параметр BVOP формата : 1Параметр QPel формата : НетПараметр GMC формата : Без точки переходаПараметр матрицы формата : Default (MPEG)Идентификатор кодека : XVIDИдентификатор кодека/Подсказка : XviDПродолжительность : 43 м.Битрейт : 1520 Кбит/секШирина : 720 пикселейВысота : 400 пикселейСоотношение сторон : 16:9Частота кадров : 30,000 кадров/секЦветовое пространство : YUVСубдискретизация насыщенности : 4:2:0Битовая глубина : 8 битТип развёртки : ПрогрессивнаяМетод сжатия : С потерямиБит/(Пиксели*Кадры) : 0.176Размер потока : 475 Мбайт (88%)Библиотека кодирования : XviD 1.2.1 (UTC 2008-12-04)
АудиоИдентификатор : 1Формат : AC-3Формат/Информация : Audio Coding 3Расширение режима : CM (complete main)Параметр Endianness формата : BigИдентификатор кодека : 2000Продолжительность : 43 м.Вид битрейта : ПостоянныйБитрейт : 192 Кбит/секКаналы : 2 каналаРасположение каналов : Front: L RЧастота : 48,0 КГцБитовая глубина : 16 битМетод сжатия : С потерямиРазмер потока : 60,0 Мбайт (11%)Выравнивание : Разделение по промежуткамПродолжительность промежутка : 33 мс. (1,00 видеокадр)Время предзагрузки промежутка : 500 мс.

Скриншоты


_________________
Показать сообщения:    

Текущее время: Сегодня 04:59

Часовой пояс: GMT



Вы не можете начинать темы
Вы не можете отвечать на сообщения
Вы не можете редактировать свои сообщения
Вы не можете удалять свои сообщения
Вы не можете голосовать в опросах
Вы не можете прикреплять файлы к сообщениям
Вы не можете скачивать файлы
Наши партнеры: интернет магазин Ивановского трикотажа textilla.ru