Важное объявление!
У Нас Все раздачи мультитрекерные, при нуле пиров в релизах, можете смело вставать на закачку!
 
Автор Сообщение

HUNTER

Стаж:
4 года 8 месяцев
Сообщений:
61987

Репутация: 101

[+] [-]
Вне форума [Профиль] [ЛС]

Discovery: Анатомия секса / Discovery: Anatomy Of Sex- -Страна: США
Жанр: документальный, познавательный, физиология, психология
Год выпуска: 2005
Продолжительность: 00:49:31
Перевод: Профессиональный (двухголосый закадровый)-Режиссер: Джонатан Группер / Jonathan Grupper-Описание:
Человеческое тело – это особый и очень хрупкий механизм. Его основная задача – продолжение рода. Но почему некоторые люди притягивают друг друга, а некоторые, наоборот, отталкивают? Как происходит естественный отбор? Что переживает человеческое тело на пике удовольствия? Все это вы узнаете из программы «Анатомия секса».-Возраст: 16+-Качество: DVDRip
Формат: AVI
Видео кодек: XviD
Аудио кодек: AC3-Релиз оформлен группой: -Видео: 720x464 (1.55:1), 25 fps, XviD build 50 ~1773 kbps avg, 0.21 bit/pixel
Аудио: 48 kHz, AC3 Dolby Digital, 2/0 (L,R) ch, ~192 kbps
-MediaInfo
General
Complete name : F:\Discovery Анатомия секса Discovery Anatomy Of Sex DVDRip\Discovery Анатомия секса Discovery Anatomy Of Sex DVDRip.avi
Format : AVI
Format/Info : Audio Video Interleave
File size : 700 MiB
Duration : 49mn 31s
Overall bit rate : 1 976 Kbps
Writing application : VirtualDubMod 1.5.10.2 (build 2540/release)
Writing library : VirtualDubMod build 2540/release
Video
ID : 0
Format : MPEG-4 Visual
Format profile : Advanced Simple@L5
Format settings, BVOP : Yes
Format settings, QPel : No
Format settings, GMC : No warppoints
Format settings, Matrix : Custom
Codec ID : XVID
Codec ID/Hint : XviD
Duration : 49mn 31s
Bit rate : 1 774 Kbps
Width : 720 pixels
Height : 464 pixels
Display aspect ratio : 1.552
Frame rate : 25.000 fps
Color space : YUV
Chroma subsampling : 4:2:0
Bit depth : 8 bits
Scan type : Progressive
Bits/(Pixel*Frame) : 0.212
Stream size : 628 MiB (90%)
Writing library : XviD 1.2.1 (UTC 2008-12-04)
Audio
ID : 1
Format : AC-3
Format/Info : Audio Coding 3
Mode extension : CM (complete main)
Codec ID : 2000
Duration : 49mn 31s
Bit rate mode : Constant
Bit rate : 192 Kbps
Channel(s) : 2 channels
Channel positions : Front: L R
Sampling rate : 48.0 KHz
Bit depth : 16 bits
Stream size : 68.0 MiB (10%)
Alignment : Split accross interleaves
Interleave, duration : 40 ms (1.00 video frame)
Interleave, preload duration : 500 ms
СкриншотыКовры-Раздаю до первых 5-ти скачавших, на раздачи не возвращаюсь...-

_________________
Показать сообщения:    

Текущее время: Сегодня 10:26

Часовой пояс: GMT



Вы не можете начинать темы
Вы не можете отвечать на сообщения
Вы не можете редактировать свои сообщения
Вы не можете удалять свои сообщения
Вы не можете голосовать в опросах
Вы не можете прикреплять файлы к сообщениям
Вы не можете скачивать файлы
Наши партнеры: интернет магазин Ивановского трикотажа textilla.ru