[Digital-Tutors] MeshFusion Workflows in MODO [2015, RUS] :: Ивановский Торрент трекер
Важное объявление!
У Нас Все раздачи мультитрекерные, при нуле пиров в релизах, можете смело вставать на закачку!
 
Автор Сообщение

HUNTER

Стаж:
4 года 11 месяцев
Сообщений:
66051

Репутация: 101

[+] [-]
Вне форума [Профиль] [ЛС]

[Digital-Tutors] MeshFusion Workflows in MODO [2015, RUS]
Год выпуска: 2015
Сайт производителя: DigitalTutors.com
Автор: Justin Marshall
Продолжительность: 1:06:26
Тип раздаваемого материала: Видеоурок
Язык: Русский (перевод Harbinger)
Описание:
Приёмы работы с Mesh Fusion в MODO.
В этом уроке по Модо мы изучим интерфейс плагина Mesh Fusion и начнём строить простой объект, используя древообразную иерархию.
Булевые операции существуют уже длительное время и складывая или вычитая различные объекты можно получить удивительно сложные формы.
Однако проблемы, вроде плохих переходов от одного объекта к другому и "грязная" конечная топология, делали работу с булевыми операциями довольно сложной, даже если они и экономили немного времени.
Плагин Mesh Fusion, который встроен в MODO 901, избавлен от большинства этих проблем и позволяет нам объединять объекты вместе, сохраняя при этом хороший контроль над переходными полосами, над комплексными иерархиями и сетями.
Мы научимся манипулировать объектами, внутри элемента Fusion, и управлять их поведением.
Файлы примеров: присутствуют
Формат видео: MP4
Видео: AVC (H264), 1280х720, 15 fps
Аудио: AAC, 44100 Hz, mono, 128 Кбит/с

Mediainfo

GeneralComplete name : 02. Using the Mesh Fusion interface.mp4Format : MPEG-4Format profile : Base MediaCodec ID : isomFile size : 34.5 MiBDuration : 5mn 52sOverall bit rate : 822 KbpsWriting application : Lavf55.19.104
VideoID : 1Format : AVCFormat/Info : Advanced Video CodecFormat profile : High@L3.1Format settings, CABAC : YesFormat settings, ReFrames : 4 framesCodec ID : avc1Codec ID/Info : Advanced Video CodingDuration : 5mn 52sBit rate : 690 KbpsNominal bit rate : 904 KbpsWidth : 1 280 pixelsHeight : 720 pixelsDisplay aspect ratio : 16:9Frame rate mode : VariableFrame rate : 15.000 fpsMinimum frame rate : 14.925 fpsMaximum frame rate : 15.152 fpsColor space : YUVChroma subsampling : 4:2:0Bit depth : 8 bitsScan type : ProgressiveBits/(Pixel*Frame) : 0.050Stream size : 28.9 MiB (84%)Writing library : x264 core 118 r2085 8a62835Language : English
AudioID : 2Format : AACFormat/Info : Advanced Audio CodecFormat profile : LCCodec ID : 40Duration : 5mn 52sDuration_LastFrame : 29msBit rate mode : ConstantBit rate : 128 KbpsChannel(s) : 2 channelsChannel(s)_Original : 1 channelChannel positions : Front: CSampling rate : 44.1 KHzCompression mode : LossyStream size : 5.37 MiB (16%)Language : Russian

Скриншоты

Время раздачи: до первых 5 скачавших

_________________
Показать сообщения:    

Текущее время: Сегодня 00:31

Часовой пояс: GMT



Вы не можете начинать темы
Вы не можете отвечать на сообщения
Вы не можете редактировать свои сообщения
Вы не можете удалять свои сообщения
Вы не можете голосовать в опросах
Вы не можете прикреплять файлы к сообщениям
Вы не можете скачивать файлы